img image001 image001 image001 image001 image001 image001 image001 image001 image001 image001 image001 image001 image001 image001 image001

Planets Sun Sun Sun
Статистика раздачи
Автор: Nickolas3434 | Размер: 3.59 ГБ | Добавлен: 14 апр 2016
Раздают: 313    Качают: 5
Скачать торрент
Скачать торрент
Описание торрента

СообщениеДобавлено: 14 апр 2016 


Информация о фильме
Название: Майор Вихрь
Год выхода: 1967
Жанр: Военный, приключения, драма
Режиссер: Евгений Ташков
В ролях: Вадим Бероев, Анастасия Вознесенская, Александр Ширвиндт, Владислав Стржельчик, Владимир Гусев, Владимир Кенигсон, Виктор Павлов, Евгений Тетерин, Игорь Ясулович, Олег Голубицкий, Евгений Кузнецов, Юрий Волынцев, Евгений Буренков, Сергей Голованов, Борис Бибиков
О фильме:
Гитлеровское командование приняло план уничтожения памятников культуры Восточной Европы. Узнав об этом, советское командование направляет в Краков группу разведчиков, воглавляемую майором "Вихрем". В основе сюжета - исторические факты и события героической операции, проведенной советскими разведчиками по спасению Кракова от уничтожения фашистами в 1944 году.
Страна: СССР, Мосфильм
Продолжительность: 3 х ~ 01:12:00
Перевод: не требуется
Файл
Кодек: x264
Качество: DVDRip-AVC
Видео: MPEG-4 AVC, 2200 Кбит/с, 720x574@768x574
Звук: AC3, 2 ch, 192 Кбит/с

raw [info]: 720x574p 16:15 @ 25/1 fps (cfr)
x264 [info]: using SAR=16/15
x264 [info]: using cpu capabilities: MMX2 SSE2Fast SSSE3 SSE4.2 AVX
x264 [info]: profile High, level 4.1
x264 [info]: frame I:464 Avg QP:16.04 size: 60979
x264 [info]: frame P:26839 Avg QP:18.85 size: 23774
x264 [info]: frame B:71935 Avg QP:20.70 size: 5919
=============================================================================================================
Общее
Уникальный идентификатор : 233889724333198930520927697863741065592 (0xAFF585BA8CD24610921F52D4CD8CC978)
Полное имя : R:МОИ РИПЫМайор Вихрь_1967-DVDRip-AVCВихрь-1.mkv
Формат : Matroska
Версия формата : Version 2
Размер файла : 1,11 Гбайт
Продолжительность : 1 ч. 6 м.
Общий поток : 2395 Кбит/сек
Дата кодирования : UTC 2016-04-11 18:16:26
Программа кодирования : mkvmerge v5.8.0 ('No Sleep / Pillow') built on Sep 2 2012 15:37:04
Библиотека кодирования : libebml v1.2.3 + libmatroska v1.3.0
Видео
Идентификатор : 1
Формат : AVC
Формат/Информация : Advanced Video Codec
Профиль формата : High@L4.1
Параметр CABAC формата : Да
Параметр ReFrames формата : 15 кадров
Идентификатор кодека : V_MPEG4/ISO/AVC
Продолжительность : 1 ч. 6 м.
Битрейт : 2200 Кбит/сек
Ширина : 720 пикселей
Высота : 574 пикселя
Соотношение сторон : 4:3
Режим частоты кадров : Постоянный
Частота кадров : 25,000 кадров/сек
Цветовое пространство : YUV
Субдискретизация насыщенности : 4:2:0
Битовая глубина : 8 бит
Тип развёртки : Прогрессивная
Бит/(Пиксели*Кадры) : 0.213
Размер потока : 1020 Мбайт (90%)
Библиотека кодирования : x264 core 148 r2638 7599210
Настройки программы : cabac=1 / ref=15 / deblock=1:-2:-2 / analyse=0x3:0x133 / me=umh / subme=10 / psy=1 / psy_rd=1.05:0.10 / mixed_ref=1 / me_range=32 / chroma_me=1 / trellis=2 / 8x8dct=1 / cqm=0 / deadzone=21,11 / fast_pskip=0 / chroma_qp_offset=-3 / threads=12 / lookahead_threads=2 / sliced_threads=0 / nr=0 / decimate=0 / interlaced=0 / bluray_compat=0 / constrained_intra=0 / bframes=8 / b_pyramid=2 / b_adapt=2 / b_bias=0 / direct=3 / weightb=1 / open_gop=0 / weightp=2 / keyint=250 / keyint_min=25 / scenecut=40 / intra_refresh=0 / rc=2pass / mbtree=0 / bitrate=2200 / ratetol=1.0 / qcomp=0.63 / qpmin=0 / qpmax=69 / qpstep=4 / cplxblur=20.0 / qblur=0.5 / ip_ratio=1.40 / pb_ratio=1.30 / aq=1:1.00
Язык : English
Default : Да
Forced : Нет
Цветовой диапазон : Limited
Основные цвета : BT.601 PAL
Характеристики трансфера : BT.470 System B, BT.470 System G
Коэффициенты матрицы : BT.601
Аудио
Идентификатор : 2
Формат : AC-3
Формат/Информация : Audio Coding 3
Расширение режима : CM (complete main)
Параметр Endianness формата : Big
Идентификатор кодека : A_AC3
Продолжительность : 1 ч. 6 м.
Вид битрейта : Постоянный
Битрейт : 192 Кбит/сек
Каналы : 2 канала
Расположение каналов : Front: L R
Частота : 48,0 КГц
Метод сжатия : С потерями
Размер потока : 90,9 Мбайт (8%)
Язык : Russian
Default : Да
Forced : Нет

Релиз от:
Автор релиза:



   Похожие торренты   Торрент   Размер 
В этой теме нет новых непрочитанных сообщений. Майор Вихрь (1967) DVDRip от Alekxandr48

46 | 9

2.06 ГБ

В этой теме нет новых непрочитанных сообщений. Юлиан Семёнов - Майор Вихрь (2007) MP3

48 | 7

168.84 МБ

В этой теме нет новых непрочитанных сообщений. Майор Данди / Major Dundee (1964) DVDRip от ExKinoRay

1 | 2

2.07 ГБ

В этой теме нет новых непрочитанных сообщений. Нежность (1967) DVDRip-AVC от ExKinoRay

51 | 5

1.59 ГБ

В этой теме нет новых непрочитанных сообщений. Майор и малютка / The Major and the Minor (1942) HDTVRip-AVC от ExKinoRay | A

1 | 2

2.07 ГБ

В этой теме нет новых непрочитанных сообщений. Восьмёрка беглецов / Eight on the Lam (1967) DVDRip от ExKinoRay | P2

15 | 3

1.37 ГБ

В этой теме нет новых непрочитанных сообщений. Операция «Трест» (1967) DVDRip-AVC от ExKinoRay

69 | 7

5.89 ГБ




Вы не можете начинать темы
Вы не можете отвечать на сообщения
Вы не можете редактировать свои сообщения
Вы не можете удалять свои сообщения
Вы не можете добавлять вложения

Перейти:  
Для Мосгорсуда, Роскомнадзора и рекламодателей: mosgorsud-torrent[собачка]yandex.ru
 Вход
ppkBB3cker v.2 © 2008-2014 @ PPK
[ Time : 0.039s | 14 Queries | GZIP : On ]

Торрент трекер RUTOR.IN, Не можете зайти на rutor.org? Какой новый адрес рутор? Какое зеркало рутор? Не работает rutor.org и зеркала? Тогда наш торрент специально для вас. Rutor.in неофициальное зеркало rutor. В случае если у Вас заблокирован rutor или вдруг Вы не можете на него зайти, то Вы без труда сможете скачать бесплатно и без рекламы последние новинки кино, игр, сериалов и прочего у нас, на Rutor.in. Не нужно использовать прокси, чтобы зайти на рутор, достаточно воспользоваться нашим ресурсом. Все новые фильмы, игры, сериалы, книги и музыка за 2013 и 2014 годы через торрент бесплатно. Скачивайте фильмы в хорошем качестве, игры для пк, xbox, playstation без регистрации. У нас вы найдете новые Зарубежные сериалы и Русские сериалы 2013, 2014, 2015 годов. Оставайтесь с нами, качайте любимые фильмы, игры, сериалы, книги и музыку.