img image001 image001 image001 image001 image001 image001 image001 image001 image001 image001 image001 image001 image001 image001 image001

Planets Sun Sun Sun
Статистика раздачи
Автор: Nickolas3434 | Размер: 699.72 МБ | Добавлен: 14 апр 2016
Раздают: 288    Качают: 18
Скачать торрент
Скачать торрент
Описание торрента

СообщениеДобавлено: 14 апр 2016 


Информация о фильме
Оригинальное название: Шу-Чу
Год выхода: 2009
Жанр: боевик, комедия, приключения
Режиссеры: Жантемир Баймухамедов, Арсен Килибаев
Авторы сценария: Жантемир Баймухамедов, Арсен Килибаев
В ролях: Даулет Абдыгапаров, Жантемир Баймухамедов, Александр Горбулин, Ильяс Касенбаев, Айдар Мухаметжанов
О фильме:
«Шу-Чу» рассказывает об образе жизни пацанов, их понятиях, о первой любви, о крепкой дружбе, о драках и опасных приключениях. В течение фильма мы следим за четверкой алма-атинских пацанов, которые предпринимают отчаянный шаг… поехать в Чуйскую долину на планы...

Страна: Россия, Казахстан
Продолжительность: 01:04:35
Перевод: Профессиональный (полное дублирование)
Субтитры: нет
Файл
Качество: DVDRip
Формат видео: AVI
Кодек: XviD
Видео: 720x400 (16:9), 25.000 fps, XviD ~1 377 kbps avg, 0.191 bit/pixel
Звук: 48.0 kHz, MPEG Layer 3, 2 ch, ~128.00 kbps avg
Дата премьеры (мир): 6 октября 2011
General
Complete name : Шу-Чу.avi
Format : AVI
Format/Info : Audio Video Interleave
File size : 700 MiB
Duration : 1h 4mn
Overall bit rate : 1 515 Kbps
Recorded date : 24.06.12
Writing library : VirtualDub build 32507/release
Video
ID : 0
Format : MPEG-4 Visual
Format profile : Advanced Simple@L5
Format settings, BVOP : 2
Format settings, QPel : No
Format settings, GMC : No warppoints
Format settings, Matrix : Default (H.263)
Muxing mode : Packed bitstream
Codec ID : XVID
Codec ID/Hint : XviD
Duration : 1h 4mn
Bit rate : 1 377 Kbps
Width : 720 pixels
Height : 400 pixels
Display aspect ratio : 16:9
Frame rate : 25.000 fps
Color space : YUV
Chroma subsampling : 4:2:0
Bit depth : 8 bits
Scan type : Progressive
Compression mode : Lossy
Bits/(Pixel*Frame) : 0.191
Stream size : 636 MiB (91%)
Writing library : XviD 1.0.1 (UTC 2004-06-05)
Audio
ID : 1
Format : MPEG Audio
Format version : Version 1
Format profile : Layer 3
Mode : Joint stereo
Mode extension : MS Stereo
Codec ID : 55
Codec ID/Hint : MP3
Duration : 1h 4mn
Bit rate mode : Constant
Bit rate : 128 Kbps
Channel(s) : 2 channels
Sampling rate : 48.0 KHz
Compression mode : Lossy
Stream size : 59.1 MiB (8%)
Alignment : Split accross interleaves
Interleave, duration : 40 ms (1.00 video frame)
Interleave, preload duration : 500 ms




   Похожие торренты   Торрент   Размер 
В этой теме нет новых непрочитанных сообщений. Мисс Вселенная 2009 / Miss Universe (2009) DVDRip by GENADIY

3 | 1

1.37 ГБ

В этой теме нет новых непрочитанных сообщений. Slipknot - Live in Rock Am Ring 2009 (2009) DVDRip

24 | 10

2.06 ГБ

В этой теме нет новых непрочитанных сообщений. Самая смешная реклама 2009 года / The Funniest Commercials Of The Year 2009 (2009) TVRip

59 | 9

352.48 МБ

В этой теме нет новых непрочитанных сообщений. Евровидение 2009 (финал) / Еurovision 2009 (final) (Голосование включено!) (2009) SATRip

317 | 2

1.56 ГБ

В этой теме нет новых непрочитанных сообщений. КВН 2009. Высшая лига. Первая 1/2 финала (эфир 2009.10.25) (2009) SATRip - fanatus

0 | 2

1.35 ГБ

В этой теме нет новых непрочитанных сообщений. Где-то там / Elsewhere (2009) DVDRip

1 | 4

701.22 МБ

В этой теме нет новых непрочитанных сообщений. Я (2009) DVDRip

66 | 5

1.46 ГБ




Вы не можете начинать темы
Вы не можете отвечать на сообщения
Вы не можете редактировать свои сообщения
Вы не можете удалять свои сообщения
Вы не можете добавлять вложения

Перейти:  
Для Мосгорсуда, Роскомнадзора и рекламодателей: mosgorsud-torrent[собачка]yandex.ru
 Вход
ppkBB3cker v.2 © 2008-2014 @ PPK
[ Time : 0.041s | 14 Queries | GZIP : Off ]

Торрент трекер RUTOR.IN, Не можете зайти на rutor.org? Какой новый адрес рутор? Какое зеркало рутор? Не работает rutor.org и зеркала? Тогда наш торрент специально для вас. Rutor.in неофициальное зеркало rutor. В случае если у Вас заблокирован rutor или вдруг Вы не можете на него зайти, то Вы без труда сможете скачать бесплатно и без рекламы последние новинки кино, игр, сериалов и прочего у нас, на Rutor.in. Не нужно использовать прокси, чтобы зайти на рутор, достаточно воспользоваться нашим ресурсом. Все новые фильмы, игры, сериалы, книги и музыка за 2013 и 2014 годы через торрент бесплатно. Скачивайте фильмы в хорошем качестве, игры для пк, xbox, playstation без регистрации. У нас вы найдете новые Зарубежные сериалы и Русские сериалы 2013, 2014, 2015 годов. Оставайтесь с нами, качайте любимые фильмы, игры, сериалы, книги и музыку.