img image001 image001 image001 image001 image001 image001 image001 image001 image001 image001 image001 image001 image001 image001 image001

Planets Sun Sun Sun
Статистика раздачи
Автор: Nickolas3434 | Размер: 1.94 ГБ | Добавлен: 14 апр 2016
Раздают: 187    Качают: 11
Скачать торрент
Скачать торрент
Описание торрента

СообщениеДобавлено: 14 апр 2016 


Информация о фильме
Название: Вам и не снилось
Год выхода: 1980
Жанр: Мелодрама
Режиссер: Илья Фрэз
В ролях: Татьяна Аксюта, Никита Михайловский, Елена Соловей, Ирина Мирошниченко, Лидия Федосеева-Шукшина, Альберт Филозов, Татьяна Пельтцер, Руфина Нифонтова, Евгений Герасимов, Леонид Филатов, Вадим Курков, Екатерина Васильева, Нина Мазаева, Любовь Соколова, Наталья Мартинсон, Александр Карин, Валентин Голубенко, Елена Майорова, Владимир Приходько, Дмитрий Полонский, Вадим Захарченко
О фильме:
По одноименной повести Галины Щербаковой. Знаменитый фильм 80-х гг. с изумительной музыкой Алексея Рыбникова о первой любви, не понятой и не оцененной взрослыми. История Ромео и Джульетты, снова вернувшихся в этот мир... Между девятиклассниками Романом и Катей возникает нежное и светлое чувство. Мать юноши, не желающая понять юных влюбленных, обманом разлучает их. Несмотря на все препятствия, Рома и Катя стремятся быть вместе.
Страна: СССР, Киностудия им. М. Горького
Продолжительность: 01:26:15
Перевод: не требуется
Файл
Кодек: x264
Качество: DVDRip-AVC
Видео: MPEG-4 AVC, 2650 Кбит/с, 716x570@782x570
Звук: АС3, 6 ch, 448 Кбит/с, АС3, 1 ch, 128 Кбит/с

raw [info]: 716x570p 71:65 @ 25/1 fps (cfr)
x264 [info]: using SAR=71/65
x264 [info]: using cpu capabilities: MMX2 SSE2Fast SSSE3 SSE4.2 AVX
x264 [info]: profile High, level 4.1
x264 [info]: frame I:674 Avg QP:15.38 size: 82434
x264 [info]: frame P:34592 Avg QP:18.93 size: 29155
x264 [info]: frame B:94112 Avg QP:20.59 size: 6907
=================================================================================================================
Общее
Уникальный идентификатор : 212655904149840614256985754290748079276 (0x9FFC0990C5931966B14670BCA79B3CAC)
Полное имя : D:Вам и не снилось_1980-DVDRip-AVC.mkv
Формат : Matroska
Версия формата : Version 2
Размер файла : 1,94 Гбайт
Продолжительность : 1 ч. 26 м.
Общий поток : 3228 Кбит/сек
Дата кодирования : UTC 2016-04-12 05:52:04
Программа кодирования : mkvmerge v5.8.0 ('No Sleep / Pillow') built on Sep 2 2012 15:37:04
Библиотека кодирования : libebml v1.2.3 + libmatroska v1.3.0
Видео
Идентификатор : 1
Формат : AVC
Формат/Информация : Advanced Video Codec
Профиль формата : High@L4.1
Параметр CABAC формата : Да
Параметр ReFrames формата : 14 кадров
Идентификатор кодека : V_MPEG4/ISO/AVC
Продолжительность : 1 ч. 26 м.
Битрейт : 2650 Кбит/сек
Ширина : 716 пикселей
Высота : 570 пикселей
Соотношение сторон : 1,372
Режим частоты кадров : Постоянный
Частота кадров : 25,000 кадров/сек
Цветовое пространство : YUV
Субдискретизация насыщенности : 4:2:0
Битовая глубина : 8 бит
Тип развёртки : Прогрессивная
Бит/(Пиксели*Кадры) : 0.260
Размер потока : 1,56 Гбайт (80%)
Библиотека кодирования : x264 core 148 r2638 7599210
Настройки программы : cabac=1 / ref=14 / deblock=1:-2:-2 / analyse=0x3:0x133 / me=umh / subme=10 / psy=1 / psy_rd=1.05:0.13 / mixed_ref=1 / me_range=32 / chroma_me=1 / trellis=2 / 8x8dct=1 / cqm=0 / deadzone=21,11 / fast_pskip=0 / chroma_qp_offset=-3 / threads=12 / lookahead_threads=2 / sliced_threads=0 / nr=0 / decimate=0 / interlaced=0 / bluray_compat=0 / constrained_intra=0 / bframes=8 / b_pyramid=2 / b_adapt=2 / b_bias=0 / direct=3 / weightb=1 / open_gop=0 / weightp=2 / keyint=250 / keyint_min=25 / scenecut=40 / intra_refresh=0 / rc=2pass / mbtree=0 / bitrate=2650 / ratetol=1.0 / qcomp=0.63 / qpmin=0 / qpmax=39 / qpstep=4 / cplxblur=20.0 / qblur=0.5 / ip_ratio=1.40 / pb_ratio=1.30 / aq=1:1.00
Язык : English
Default : Да
Forced : Нет
Цветовой диапазон : Limited
Основные цвета : BT.601 PAL
Характеристики трансфера : BT.470 System B, BT.470 System G
Коэффициенты матрицы : BT.601
Аудио #1
Идентификатор : 2
Формат : AC-3
Формат/Информация : Audio Coding 3
Расширение режима : CM (complete main)
Параметр Endianness формата : Big
Идентификатор кодека : A_AC3
Продолжительность : 1 ч. 26 м.
Вид битрейта : Постоянный
Битрейт : 448 Кбит/сек
Каналы : 6 каналов
Расположение каналов : Front: L C R, Side: L R, LFE
Частота : 48,0 КГц
Метод сжатия : С потерями
Задержка видео : 120 мс.
Размер потока : 276 Мбайт (14%)
Язык : Russian
Default : Да
Forced : Нет
Аудио #2
Идентификатор : 3
Формат : AC-3
Формат/Информация : Audio Coding 3
Расширение режима : CM (complete main)
Параметр Endianness формата : Big
Идентификатор кодека : A_AC3
Продолжительность : 1 ч. 26 м.
Вид битрейта : Постоянный
Битрейт : 128 Кбит/сек
Каналы : 1 канал
Расположение каналов : Front: C
Частота : 48,0 КГц
Метод сжатия : С потерями
Задержка видео : 120 мс.
Размер потока : 79,0 Мбайт (4%)
Язык : Russian
Default : Нет
Forced : Нет
Меню
00:00:00.000 : ru:Chapter 1
00:09:42.960 : ru:Chapter 2
00:14:09.920 : ru:Chapter 3
00:17:50.800 : ru:Chapter 4
00:21:09.800 : ru:Chapter 5
00:24:33.480 : ru:Chapter 6
00:29:30.600 : ru:Chapter 7
00:33:29.160 : ru:Chapter 8
00:40:55.360 : ru:Chapter 9
00:48:28.880 : ru:Chapter 10
00:53:02.840 : ru:Chapter 11
00:57:55.720 : ru:Chapter 12
01:02:49.280 : ru:Chapter 13
01:07:44.000 : ru:Chapter 14
01:15:29.000 : ru:Chapter 15
01:20:43.560 : ru:Chapter 16

Релиз от:
Автор релиза:



   Похожие торренты   Торрент   Размер 
В этой теме нет новых непрочитанных сообщений. Вам и не снилось (1980) DVDRip

504 | 35

1.46 ГБ

В этой теме нет новых непрочитанных сообщений. Вам и не снилось (1980) DVDRip

84 | 11

744.51 МБ

В этой теме нет новых непрочитанных сообщений. Вам и не снилось (1980) DVD9

35 | 11

6.62 ГБ

В этой теме нет новых непрочитанных сообщений. Шекспиру и не снилось (2007) DVDRip

91 | 8

1.36 ГБ

В этой теме нет новых непрочитанных сообщений. Шекспиру и не снилось (2007) DVDRip от Youtracker

0 | 2

748.89 МБ

В этой теме нет новых непрочитанных сообщений. Шекспиру и не снилось (2007) DVDRip-AVC от Youtracker

6 | 4

1.46 ГБ

В этой теме нет новых непрочитанных сообщений. Охота на лис (1980) DVDRip от ExKinoRay

14 | 11

1.37 ГБ




Вы не можете начинать темы
Вы не можете отвечать на сообщения
Вы не можете редактировать свои сообщения
Вы не можете удалять свои сообщения
Вы не можете добавлять вложения

Перейти:  
Для Мосгорсуда, Роскомнадзора и рекламодателей: mosgorsud-torrent[собачка]yandex.ru
 Вход
ppkBB3cker v.2 © 2008-2014 @ PPK
[ Time : 0.063s | 15 Queries | GZIP : Off ]

cron