img image001 image001 image001 image001 image001 image001 image001 image001 image001 image001 image001 image001 image001 image001 image001

Planets Sun Sun Sun
Статистика раздачи
Автор: Nickolas3434 | Размер: 744.79 МБ | Добавлен: 16 апр 2016
Раздают: 20    Качают: 5
Скачать торрент
Скачать торрент
Описание торрента

СообщениеДобавлено: 16 апр 2016 

Страна: СССР
Производство: Грузия-фильм
Жанр: мелодрама, комедия
Год выпуска: 1954
Продолжительность: 01:32:07
Перевод: Не требуется
Cубтитры: нет
Оригинальная аудиодорожка: русский
Режиссер: Семён Долидзе, Леван Хотивари
В ролях:
Лейла Абашидзе, Цецилия Цуцунава, Тамара Абашидзе, Александр Омиадзе, Лиана Асатиани, Медея Чахава, Рамаз Чхиквадзе, Давид (Додо) Абашидзе, Александр (Сандро) Жоржолиани, Георгий Шавгулидзе, Шалва Гамбашидзе, Александра Тоидзе, Додо Чичинадзе, Тамара Цицишвили, Георгий Гегечкори, Бидзина Цуладзе...
Полный список актёров
Описание:
Трогательная, не лишенная юмора, история любви запутавшейся в собственных фантазиях доброй и веселой девушки к молодому тбилисскому архитектору.





Источник: DVB
Качество видео: SATRip
Формат видео: AVI
Видео: 576x432 (4:3), 25 fps, XviD ~ 993 kbps avg, 0.160 bit/pixel
Аудио: 48 kHz, MP3 2.0, 128 kbps
Раздача от:
Общее
Полное имя : Strekoza.1954.SATRip-745_[New-team]_by_AVP_Studio.avi
Формат : AVI
Формат/Информация : Audio Video Interleave
Размер файла : 745 Мбайт
Продолжительность : 1 ч. 32 м.
Общий поток : 1130 Кбит/сек
Программа кодирования : VirtualDubMod 1.5.10.3 | www.virtualdub-fr.org || (build 2550/release)
Библиотека кодирования : VirtualDubMod build 2550/release
Видео
Идентификатор : 0
Формат : MPEG-4 Visual
Профиль формата : Advanced Simple@L5
Параметр BVOP формата : 1
Параметр QPel формата : Нет
Параметр GMC формата : Без точки перехода
Параметр матрицы формата : Выборочная
Идентификатор кодека : XVID
Идентификатор кодека/Подсказка : XviD
Продолжительность : 1 ч. 32 м.
Битрейт : 993 Кбит/сек
Ширина : 576 пикселей
Высота : 432 пикселя
Соотношение сторон : 4:3
Частота кадров : 25,000 кадров/сек
Цветовое пространство : YUV
Субдискретизация насыщенности : 4:2:0
Битовая глубина : 8 бит
Тип развёртки : Прогрессивная
Метод сжатия : С потерями
Бит/(Пиксели*Кадры) : 0.160
Размер потока : 654 Мбайт (88%)
Библиотека кодирования : XviD 1.2.1 (UTC 2008-12-04)
Аудио
Идентификатор : 1
Формат : MPEG Audio
Версия формата : Version 1
Профиль формата : Layer 3
Идентификатор кодека : 55
Идентификатор кодека/Подсказка : MP3
Продолжительность : 1 ч. 32 м.
Вид битрейта : Постоянный
Битрейт : 128 Кбит/сек
Каналы : 2 канала
Частота : 48,0 КГц
Метод сжатия : С потерями
Размер потока : 84,3 Мбайт (11%)
Выравнивание : Соединение по промежуткам
Продолжительность промежутка : 40 мс. (1,00 видеокадр)
Время предзагрузки промежутка : 504 мс.
Библиотека кодирования : LAME3.99r
Настройки программы : -m s -V 4 -q 2 -lowpass 17 -b 128





   Похожие торренты   Торрент   Размер 
В этой теме нет новых непрочитанных сообщений. Стрекоза (1954) SATRip от New-Team

10 | 2

1.09 ГБ

В этой теме нет новых непрочитанных сообщений. Стрекоза (1954) SATRip-AVC от New-Team

18 | 5

1.09 ГБ

В этой теме нет новых непрочитанных сообщений. Стрекоза (1954) SATRip от Files-x

66 | 2

1.36 ГБ

В этой теме нет новых непрочитанных сообщений. Стрекоза / ჭრიჭინა (1954) TVRip

12 | 4

5.85 ГБ

В этой теме нет новых непрочитанных сообщений. Эскадрон Стрекоза / Dragonfly Squadron (1954) BDRip 1080p от Ash61 | 3D-Video | halfOU | L1

36 | 14

9.07 ГБ

В этой теме нет новых непрочитанных сообщений. Два друга (1954) SATRip от New-Team

44 | 6

1.09 ГБ

В этой теме нет новых непрочитанных сообщений. Два друга (1954) SATRip от New-Team

12 | 11

745.75 МБ




Вы не можете начинать темы
Вы не можете отвечать на сообщения
Вы не можете редактировать свои сообщения
Вы не можете удалять свои сообщения
Вы не можете добавлять вложения

Перейти:  
Для Мосгорсуда, Роскомнадзора и рекламодателей: mosgorsud-torrent[собачка]yandex.ru
 Вход
ppkBB3cker v.2 © 2008-2014 @ PPK
[ Time : 0.033s | 15 Queries | GZIP : Off ]

Торрент трекер RUTOR.IN, Не можете зайти на rutor.org? Какой новый адрес рутор? Какое зеркало рутор? Не работает rutor.org и зеркала? Тогда наш торрент специально для вас. Rutor.in неофициальное зеркало rutor. В случае если у Вас заблокирован rutor или вдруг Вы не можете на него зайти, то Вы без труда сможете скачать бесплатно и без рекламы последние новинки кино, игр, сериалов и прочего у нас, на Rutor.in. Не нужно использовать прокси, чтобы зайти на рутор, достаточно воспользоваться нашим ресурсом. Все новые фильмы, игры, сериалы, книги и музыка за 2013 и 2014 годы через торрент бесплатно. Скачивайте фильмы в хорошем качестве, игры для пк, xbox, playstation без регистрации. У нас вы найдете новые Зарубежные сериалы и Русские сериалы 2013, 2014, 2015 годов. Оставайтесь с нами, качайте любимые фильмы, игры, сериалы, книги и музыку.