img image001 image001 image001 image001 image001 image001 image001 image001 image001 image001 image001 image001 image001 image001 image001

Planets Sun Sun Sun
Статистика раздачи
Автор: Nickolas3434 | Размер: 743.26 МБ | Добавлен: 16 апр 2016, 06:26
Раздают: 51    Качают: 4
Скачать торрент
Скачать торрент
Описание торрента

СообщениеДобавлено: 16 апр 2016, 06:26 


Информация о фильме
Название: Русалочка
Год выхода: 1976
Жанр: Сказка
Режиссер: Владимир Бычков
В ролях: Вика Новикова, Валентин Никулин, Галина Артемова, Юрий Сенкевич, Галина Волчек, Стефан Илиев, Михаил Пуговкин, Светлана Моисеенко, Маргарита Чудинова, Стефан Пейчев, Михаил Янушкевич, Андрей Файт, Юлий Файт
О фильме:
Картина посвящена памяти великого датского писателя Ганса Христиана Андерсена и создана по мотивам одной из лучших его сказок. Маленькая Русалочка полюбила Принца, однажды спасенного ею во время шторма. Ради этой любви Русалочка пожертвовала многим: она не побоялась покинуть свой дом, вступила в сделку со злой колдуньей. Колдунья, используя различные магические заклятия в обмен на прекрасный голосок Русалочки, сотворила ей вместо рыбьего хвоста человеческие ноги и сделала так, чтобы Русалочка смогла ходить и жить на земле. Через все эти испытания прошла маленькая Русалочка только ради одного - быть рядом с любимым. Но принц, так и не понявший своего счастья, теряет ее навсегда...

Страна: СССР, Болгария
Студия: им. М. Горького, Студия худ. фильмов (НРБ)
Продолжительность: 01:17:51
Перевод: Не требуется
Файл
Кодек: XviD
Качество: DVDRip
Видео: 640x480 (1.33:1), 25 fps, XviD build 50 ~1196 kbps avg, 0.16 bit/pixel
Звук: 48 kHz, MPEG Layer 3, 2 ch, ~128.00 kbps avg
Субтитры: Отсутствует
Семпл
General
Complete name : D:Изготовление рипаRusalochka_1976_dvdrip.by shkiper.avi
Format : AVI
Format/Info : Audio Video Interleave
File size : 743 MiB
Duration : 1h 17mn
Overall bit rate : 1 335 Kbps
Writing application : VirtualDubMod 1.5.10.3 | www.virtualdub-fr.org || (build 2550/release)
Writing library : VirtualDubMod build 2550/release
Video
ID : 0
Format : MPEG-4 Visual
Format profile : Advanced Simple@L5
Format settings, BVOP : 1
Format settings, QPel : No
Format settings, GMC : No warppoints
Format settings, Matrix : Custom
Codec ID : XVID
Codec ID/Hint : XviD
Duration : 1h 17mn
Bit rate : 1 197 Kbps
Width : 640 pixels
Height : 480 pixels
Display aspect ratio : 4:3
Frame rate : 25.000 fps
Color space : YUV
Chroma subsampling : 4:2:0
Bit depth : 8 bits
Scan type : Progressive
Compression mode : Lossy
Bits/(Pixel*Frame) : 0.156
Stream size : 667 MiB (90%)
Writing library : XviD 1.2.1 (UTC 2008-12-04)
Audio
ID : 1
Format : MPEG Audio
Format version : Version 1
Format profile : Layer 3
Codec ID : 55
Codec ID/Hint : MP3
Duration : 1h 17mn
Bit rate mode : Constant
Bit rate : 128 Kbps
Channel(s) : 2 channels
Sampling rate : 48.0 KHz
Compression mode : Lossy
Stream size : 71.3 MiB (10%)
Alignment : Aligned on interleaves
Interleave, duration : 40 ms (1.00 video frame)
Interleave, preload duration : 504 ms
Writing library : LAME3.99r
Encoding settings : -m s -V 4 -q 2 -lowpass 17 -b 128

Релиз от:



   Похожие торренты   Торрент   Размер 
В этой теме нет новых непрочитанных сообщений. Русалочка (1976) DVDRip

68 | 7

1.12 ГБ

В этой теме нет новых непрочитанных сообщений. Русалочка (1976) DVDRip от AndrewWhite

92 | 9

1.37 ГБ

В этой теме нет новых непрочитанных сообщений. Русалочка (1976) DVD9

5 | 2

6.05 ГБ

В этой теме нет новых непрочитанных сообщений. Мама (1976) HDTVRip от Шкипер

321 | 8

743.89 МБ

В этой теме нет новых непрочитанных сообщений. Русалочка / The Little Mermaid (1989) DVDRip-AVC от Киномагия l D

184 | 9

1.33 ГБ

В этой теме нет новых непрочитанных сообщений. Русалочка / Mala morska vila (1975) DVDRip

25 | 9

743.53 МБ

В этой теме нет новых непрочитанных сообщений. Русалочка: Трилогия + Бонус / The Little Mermaid: Trilogy + Bonys (1989-2008 ) DVDRip,SATRip AVC

197 | 183

17.56 ГБ




Вы не можете начинать темы
Вы не можете отвечать на сообщения
Вы не можете редактировать свои сообщения
Вы не можете удалять свои сообщения
Вы не можете добавлять вложения

Перейти:  
Для Мосгорсуда, Роскомнадзора и рекламодателей: mosgorsud-torrent[собачка]yandex.ru
Настройки
ppkBB3cker v.2 © 2008-2014 @ PPK
[ Time : 0.023s | 18 Queries | GZIP : Off ]
CGP [Extreme] output time : 0.00221s | 0 Queries | GZIP : Off

Торрент трекер RUTOR.IN, Не можете зайти на rutor.org? Какой новый адрес рутор? Какое зеркало рутор? Не работает rutor.org и зеркала? Тогда наш торрент специально для вас. Rutor.in неофициальное зеркало rutor. В случае если у Вас заблокирован rutor или вдруг Вы не можете на него зайти, то Вы без труда сможете скачать бесплатно и без рекламы последние новинки кино, игр, сериалов и прочего у нас, на Rutor.in. Не нужно использовать прокси, чтобы зайти на рутор, достаточно воспользоваться нашим ресурсом. Все новые фильмы, игры, сериалы, книги и музыка за 2013 и 2014 годы через торрент бесплатно. Скачивайте фильмы в хорошем качестве, игры для пк, xbox, playstation без регистрации. У нас вы найдете новые Зарубежные сериалы и Русские сериалы 2013, 2014, 2015 годов. Оставайтесь с нами, качайте любимые фильмы, игры, сериалы, книги и музыку.