img image001 image001 image001 image001 image001 image001 image001 image001 image001 image001 image001 image001 image001 image001 image001

Planets Sun Sun Sun
Статистика раздачи
Автор: Nickolas3434 | Размер: 2.18 ГБ | Добавлен: 16 апр 2016
Раздают: 223    Качают: 6
Скачать торрент
Скачать торрент
Описание торрента

СообщениеДобавлено: 16 апр 2016 


Похороните меня за плинтусом

Год выпуска: 2008
Страна: Россия
Производство: Киностудия "Глобус"
Жанр: драма
Режиссер: Игорь Коняев
В ролях: Эра Зиганшина, Игорь Скляр, Роман Громадский, Владимир Баранов, Леонид Михайловский, Людмила Моторная, Виктория Жилина
Перевод: Не требуется
Субтитры: Отсутствуют
Описание: История о трудном детстве школьника Саши, замученного непростыми взаимоотношениями бабушки, дедушки и матери. Череда трагических эпизодов, в которых предстают хорошо узнаваемые приметы советской жизни, накладывает отпечаток на психику мальчика, но в конце концов, ведет к воссоединению родных сердец.

Качество: DVDRip-AVC
Продолжительность: 01:50:21
Формат: MKV
Видео кодек: x264
Аудио кодек: AC3
Видео: 720x288 (2.500), 25 fps, x264 ~2446 kbps avg, 0.472 bit/pixel
Аудио: 48 kHz, Audio Coding 3, 6 ch, Front: L C R, Side: L R, LFE, ~384 Kbps avg
Формат : Matroska
Версия формата : Version 4 / Version 2
Размер файла : 2,18 Гбайт
Продолжительность : 1 ч. 50 м.
Общий поток : 2832 Кбит/сек
Название фильма : Похороните меня за плинтусом by sergey07
Дата кодирования : UTC 2016-04-15 17:22:35
Программа кодирования : mkvmerge v7.6.0 ('Garden of Dreams') 64bit built on Feb 8 2015 13:04:34
Библиотека кодирования : libebml v1.3.1 + libmatroska v1.4.2
DURATION : 01:50:20.608000000
NUMBER_OF_FRAMES : 206894
NUMBER_OF_BYTES : 317789184
_STATISTICS_WRITING_APP : mkvmerge v7.6.0 ('Garden of Dreams') 64bit built on Feb 8 2015 13:04:34
_STATISTICS_WRITING_DATE_UTC : 2016-04-15 17:22:35
_STATISTICS_TAGS : BPS DURATION NUMBER_OF_FRAMES NUMBER_OF_BYTES
Видео
Идентификатор : 1
Формат : AVC
Формат/Информация : Advanced Video Codec
Профиль формата : High@L4.1
Параметр CABAC формата : Да
Параметр ReFrames формата : 14 кадров
Идентификатор кодека : V_MPEG4/ISO/AVC
Продолжительность : 1 ч. 50 м.
Битрейт : 2446 Кбит/сек
Ширина : 720 пикселей
Высота : 288 пикселей
Соотношение сторон : 2,500
Режим частоты кадров : Постоянный
Частота кадров : 25,000 кадров/сек
Цветовое пространство : YUV
Субдискретизация насыщенности : 4:2:0
Битовая глубина : 8 бит
Тип развёртки : Прогрессивная
Бит/(Пиксели*Кадры) : 0.472
Размер потока : 1,84 Гбайт (84%)
Библиотека кодирования : x264 core 148 r2638 7599210
Настройки программы : cabac=1 / ref=14 / deblock=1:-1:-1 / analyse=0x3:0x113 / me=umh / subme=11 / psy=1 / psy_rd=1.00:0.00 / mixed_ref=1 / me_range=32 / chroma_me=1 / trellis=2 / 8x8dct=1 / cqm=0 / deadzone=21,11 / fast_pskip=1 / chroma_qp_offset=-4 / threads=9 / lookahead_threads=2 / sliced_threads=0 / nr=0 / decimate=1 / interlaced=0 / bluray_compat=0 / constrained_intra=0 / bframes=12 / b_pyramid=2 / b_adapt=2 / b_bias=0 / direct=1 / weightb=1 / open_gop=0 / weightp=2 / keyint=250 / keyint_min=25 / scenecut=40 / intra_refresh=0 / rc_lookahead=40 / rc=2pass / mbtree=1 / bitrate=2446 / ratetol=1.0 / qcomp=0.70 / qpmin=5 / qpmax=69 / qpstep=4 / cplxblur=20.0 / qblur=0.5 / vbv_maxrate=50000 / vbv_bufsize=62500 / nal_hrd=none / filler=0 / ip_ratio=1.40 / aq=1:1.00
Язык : Russian
Default : Да
Forced : Нет
Аудио
Идентификатор : 2
Формат : AC-3
Формат/Информация : Audio Coding 3
Расширение режима : CM (complete main)
Параметр Endianness формата : Big
Идентификатор кодека : A_AC3
Продолжительность : 1 ч. 50 м.
Вид битрейта : Постоянный
Битрейт : 384 Кбит/сек
Каналы : 6 каналов
Расположение каналов : Front: L C R, Side: L R, LFE
Частота : 48,0 КГц
Битовая глубина : 16 бит
Метод сжатия : С потерями
Размер потока : 303 Мбайт (14%)
Язык : Russian
Default : Да
Forced : Да
x264 [info]: using SAR=1/1
x264 [info]: using cpu capabilities: MMX2 SSE2Fast SSSE3 SSE4.2 AVX FMA3 AVX2 LZCNT BMI2
x264 [info]: profile High, level 4.1
x264 [info]: frame I:975 Avg QP:10.68 size: 49646
x264 [info]: frame P:33691 Avg QP:12.82 size: 26363
x264 [info]: frame B:130850 Avg QP:15.55 size: 8312
x264 [info]: consecutive B-frames: 1.1% 2.1% 8.6% 17.6% 14.5% 38.8% 6.6% 3.9% 3.7% 1.0% 1.0% 0.8% 0.3%
x264 [info]: mb I I16..4: 5.0% 63.6% 31.4%
x264 [info]: mb P I16..4: 1.1% 18.4% 3.2% P16..4: 22.7% 31.8% 20.4% 0.0% 0.0% skip: 2.4%
x264 [info]: mb B I16..4: 0.4% 3.9% 0.5% B16..8: 29.4% 27.2% 7.1% direct:12.9% skip:18.6% L0:37.8% L1:30.6% BI:31.6%
x264 [info]: 8x8 transform intra:80.0% inter:49.1%
x264 [info]: coded y,uvDC,uvAC intra: 87.1% 88.4% 77.4% inter: 45.1% 42.0% 20.5%
x264 [info]: i16 v,h,dc,p: 38% 10% 5% 48%
x264 [info]: i8 v,h,dc,ddl,ddr,vr,hd,vl,hu: 12% 15% 16% 7% 8% 8% 10% 9% 14%
x264 [info]: i4 v,h,dc,ddl,ddr,vr,hd,vl,hu: 13% 12% 15% 7% 12% 10% 12% 9% 12%
x264 [info]: i8c dc,h,v,p: 40% 31% 19% 10%
x264 [info]: Weighted P-Frames: Y:3.2% UV:0.7%
x264 [info]: ref P L0: 38.4% 11.9% 16.4% 6.6% 6.2% 4.2% 3.9% 2.1% 2.2% 1.7% 1.8% 1.4% 1.5% 1.3% 0.2% 0.0%
x264 [info]: ref B L0: 73.2% 11.9% 4.7% 2.5% 1.9% 1.5% 1.2% 0.8% 0.7% 0.6% 0.6% 0.3% 0.1%
x264 [info]: ref B L1: 93.6% 6.4%
x264 [info]: kb/s:2445.96

Релиз от:



   Похожие торренты   Торрент   Размер 
В этой теме нет новых непрочитанных сообщений. Похороните меня за плинтусом (2009) DVDRip

71 | 10

699.41 МБ

В этой теме нет новых непрочитанных сообщений. Похороните меня за плинтусом (2009) DVDRip

277 | 23

1.33 ГБ

В этой теме нет новых непрочитанных сообщений. Похороните меня за плинтусом (2009) DVDRip от KINOREAKTOR

549 | 13

1.59 ГБ

В этой теме нет новых непрочитанных сообщений. Похороните меня за плинтусом (2009) DVD5

62 | 7

3.9 ГБ

В этой теме нет новых непрочитанных сообщений. Похороните меня за плинтусом (2009) DVD9

114 | 11

5.95 ГБ

В этой теме нет новых непрочитанных сообщений. Санаев Павел - Похороните меня за плинтусом (2007) MP3

5 | 6

68.54 МБ

В этой теме нет новых непрочитанных сообщений. Павел Санаев - Похороните меня за плинтусом (2007) MP3

2 | 2

137.12 МБ




Вы не можете начинать темы
Вы не можете отвечать на сообщения
Вы не можете редактировать свои сообщения
Вы не можете удалять свои сообщения
Вы не можете добавлять вложения

Перейти:  
Для Мосгорсуда, Роскомнадзора и рекламодателей: mosgorsud-torrent[собачка]yandex.ru
 Вход
ppkBB3cker v.2 © 2008-2014 @ PPK
[ Time : 0.554s | 14 Queries | GZIP : Off ]

Торрент трекер RUTOR.IN, Не можете зайти на rutor.org? Какой новый адрес рутор? Какое зеркало рутор? Не работает rutor.org и зеркала? Тогда наш торрент специально для вас. Rutor.in неофициальное зеркало rutor. В случае если у Вас заблокирован rutor или вдруг Вы не можете на него зайти, то Вы без труда сможете скачать бесплатно и без рекламы последние новинки кино, игр, сериалов и прочего у нас, на Rutor.in. Не нужно использовать прокси, чтобы зайти на рутор, достаточно воспользоваться нашим ресурсом. Все новые фильмы, игры, сериалы, книги и музыка за 2013 и 2014 годы через торрент бесплатно. Скачивайте фильмы в хорошем качестве, игры для пк, xbox, playstation без регистрации. У нас вы найдете новые Зарубежные сериалы и Русские сериалы 2013, 2014, 2015 годов. Оставайтесь с нами, качайте любимые фильмы, игры, сериалы, книги и музыку.