img image001 image001 image001 image001 image001 image001 image001 image001 image001 image001 image001 image001 image001 image001 image001

Planets Sun Sun Sun
Статистика раздачи
Автор: Nickolas3434 | Размер: 1.61 ГБ | Добавлен: 17 апр 2016
Раздают: 11    Качают: 1
Скачать торрент
Скачать торрент
Описание торрента

СообщениеДобавлено: 17 апр 2016 


Информация о фильме
Название: Бархатный сезон
Год выхода: 1978
Жанр: Драма, военный
Режиссер: Владимир Павлович
В ролях: Юозас Будрайтис, Татьяна Сидоренко, Александр Лазарев ст., Валентина Игнатьева, Сергей Бондарчук ст., Иннокентий Смоктуновский, Николай Крючков, Юрий Яковлев, Альгимантас Масюлис, Игорь Васильев, Виктор Сергачёв, Лев Поляков, Виктор Филиппов, Ирина Скобцева, Александр Вокач
О фильме:
Осень 1938 года. Бойцы интербригады, сражающейся в Испании, - русский Шухов, француз Анри и американка Лиз - оказываются в небольшом городке на франко-испанской границе и решают помочь девушке переправить на Корсику испанских детей. Однако фашисты захватывают приморский вокзал и объявляют всех присутствующих заложниками...
Страна: СССР, Швейцария, Мосфильм
Продолжительность: 01:36:30
Перевод: не требуется
Файл
Кодек: x264
Качество: DVDRip-AVC
Видео: MPEG-4, 2200 Кбит/с, 698x572@744x572
Звук: AC3, 2 ch, 192 Кбит/с

raw [info]: 698x572p 16:15 @ 25/1 fps (cfr)
x264 [info]: using SAR=16/15
x264 [info]: using cpu capabilities: MMX2 SSE2Fast SSSE3 SSE4.2 AVX
x264 [info]: profile High, level 4.1
x264 [info]: frame I:889 Avg QP:14.38 size: 73798
x264 [info]: frame P:33398 Avg QP:17.40 size: 27397
x264 [info]: frame B:110466 Avg QP:19.75 size: 5537
==================================================================================================
Общее
Уникальный идентификатор : 245153930491606334842751826530643761009 (0xB86EEDF86AE54C0DACCEA8E6A5645771)
Полное имя : D:Бархатный сезон_1978-DVDRip-AVC.mkv
Формат : Matroska
Версия формата : Version 2
Размер файла : 1,61 Гбайт
Продолжительность : 1 ч. 36 м.
Общий поток : 2394 Кбит/сек
Дата кодирования : UTC 2016-04-15 03:16:05
Программа кодирования : mkvmerge v5.8.0 ('No Sleep / Pillow') built on Sep 2 2012 15:37:04
Библиотека кодирования : libebml v1.2.3 + libmatroska v1.3.0
Видео
Идентификатор : 1
Формат : AVC
Формат/Информация : Advanced Video Codec
Профиль формата : High@L4.1
Параметр CABAC формата : Да
Параметр ReFrames формата : 14 кадров
Идентификатор кодека : V_MPEG4/ISO/AVC
Продолжительность : 1 ч. 36 м.
Битрейт : 2200 Кбит/сек
Ширина : 698 пикселей
Высота : 572 пикселя
Соотношение сторон : 4:3
Соотношение сторон в оригинале : 4:3
Режим частоты кадров : Постоянный
Частота кадров : 25,000 кадров/сек
Цветовое пространство : YUV
Субдискретизация насыщенности : 4:2:0
Битовая глубина : 8 бит
Тип развёртки : Прогрессивная
Бит/(Пиксели*Кадры) : 0.220
Размер потока : 1,45 Гбайт (90%)
Библиотека кодирования : x264 core 148 r2638 7599210
Настройки программы : cabac=1 / ref=14 / deblock=1:-2:-2 / analyse=0x3:0x133 / me=umh / subme=10 / psy=1 / psy_rd=1.05:0.10 / mixed_ref=1 / me_range=32 / chroma_me=1 / trellis=2 / 8x8dct=1 / cqm=0 / deadzone=21,11 / fast_pskip=0 / chroma_qp_offset=-3 / threads=12 / lookahead_threads=2 / sliced_threads=0 / nr=0 / decimate=0 / interlaced=0 / bluray_compat=0 / constrained_intra=0 / bframes=8 / b_pyramid=2 / b_adapt=2 / b_bias=0 / direct=3 / weightb=1 / open_gop=0 / weightp=2 / keyint=250 / keyint_min=25 / scenecut=40 / intra_refresh=0 / rc_lookahead=40 / rc=2pass / mbtree=1 / bitrate=2200 / ratetol=1.0 / qcomp=0.65 / qpmin=0 / qpmax=39 / qpstep=4 / cplxblur=20.0 / qblur=0.5 / ip_ratio=1.30 / aq=1:1.00
Язык : English
Default : Да
Forced : Нет
Цветовой диапазон : Limited
Основные цвета : BT.601 PAL
Характеристики трансфера : BT.470 System B, BT.470 System G
Коэффициенты матрицы : BT.601
Аудио
Идентификатор : 2
Формат : AC-3
Формат/Информация : Audio Coding 3
Расширение режима : CM (complete main)
Параметр Endianness формата : Big
Идентификатор кодека : A_AC3
Продолжительность : 1 ч. 36 м.
Вид битрейта : Постоянный
Битрейт : 192 Кбит/сек
Каналы : 2 канала
Расположение каналов : Front: L R
Частота : 48,0 КГц
Метод сжатия : С потерями
Размер потока : 133 Мбайт (8%)
Язык : Russian
Default : Да
Forced : Нет
Меню
00:00:00.000 : ru:Chapter 1
00:08:17.400 : ru:Chapter 2
00:12:39.000 : ru:Chapter 3
00:17:52.800 : ru:Chapter 4
00:21:01.200 : ru:Chapter 5
00:24:39.600 : ru:Chapter 6
00:31:31.800 : ru:Chapter 7
00:36:28.800 : ru:Chapter 8
00:40:31.800 : ru:Chapter 9
00:44:45.600 : ru:Chapter 10
00:55:34.800 : ru:Chapter 11
01:01:48.600 : ru:Chapter 12
01:09:21.600 : ru:Chapter 13
01:17:47.400 : ru:Chapter 14
01:26:02.400 : ru:Chapter 15
01:30:24.600 : ru:Chapter 16

Релиз от:
Автор релиза:



   Похожие торренты   Торрент   Размер 
В этой теме нет новых непрочитанных сообщений. Бархатный сезон (1978) DVDRip

6 | 8

1.37 ГБ

В этой теме нет новых непрочитанных сообщений. Сборник - Бархатный Сезон (2012) MP3

1 | 2

659.2 МБ

В этой теме нет новых непрочитанных сообщений. Сборник - Europa Plus. Бархатный сезон (2016) MP3

641 | 56

699 МБ

В этой теме нет новых непрочитанных сообщений. Сборник - Бархатный сезон. Только лучшее (2013) MP3

3 | 2

700.58 МБ

В этой теме нет новых непрочитанных сообщений. Сборник - Русское радио. Бархатный сезон (2016) MP3

455 | 43

671.29 МБ

В этой теме нет новых непрочитанных сообщений. Бархатный сезон - Дискография [4 Альбома] (1990-2005) MP3

12 | 11

448.07 МБ

В этой теме нет новых непрочитанных сообщений. Бархатный сезон - Эта злая ночь (1990) FLAC

6 | 1

970.52 МБ




Вы не можете начинать темы
Вы не можете отвечать на сообщения
Вы не можете редактировать свои сообщения
Вы не можете удалять свои сообщения
Вы не можете добавлять вложения

Перейти:  
Для Мосгорсуда, Роскомнадзора и рекламодателей: mosgorsud-torrent[собачка]yandex.ru
 Вход
ppkBB3cker v.2 © 2008-2014 @ PPK
[ Time : 0.055s | 14 Queries | GZIP : Off ]

Торрент трекер RUTOR.IN, Не можете зайти на rutor.org? Какой новый адрес рутор? Какое зеркало рутор? Не работает rutor.org и зеркала? Тогда наш торрент специально для вас. Rutor.in неофициальное зеркало rutor. В случае если у Вас заблокирован rutor или вдруг Вы не можете на него зайти, то Вы без труда сможете скачать бесплатно и без рекламы последние новинки кино, игр, сериалов и прочего у нас, на Rutor.in. Не нужно использовать прокси, чтобы зайти на рутор, достаточно воспользоваться нашим ресурсом. Все новые фильмы, игры, сериалы, книги и музыка за 2013 и 2014 годы через торрент бесплатно. Скачивайте фильмы в хорошем качестве, игры для пк, xbox, playstation без регистрации. У нас вы найдете новые Зарубежные сериалы и Русские сериалы 2013, 2014, 2015 годов. Оставайтесь с нами, качайте любимые фильмы, игры, сериалы, книги и музыку.