img image001 image001 image001 image001 image001 image001 image001 image001 image001 image001 image001 image001 image001 image001 image001

Planets Sun Sun Sun
Статистика раздачи
Автор: Nickolas3434 | Размер: 2.94 ГБ | Добавлен: 17 апр 2016
Раздают: 95    Качают: 9
Скачать торрент
Скачать торрент
Описание торрента

СообщениеДобавлено: 17 апр 2016 


Информация о фильме
Название: Чёрный треугольник
Год выхода: 1981
Жанр: Криминал, детектив
Режиссер: Сергей Тарасов
В ролях: Константин Григорьев, Анатолий Ромашин, Жанна Болотова, Альгимантас Масюлис, Всеволод Сафонов, Борис Химичев, Ольга Барнет, Леонид Кулагин, Юрий Смирнов, Виктор Чеботарев, Алексей Миронов, Борис Хмельницкий, Николай Дупак, Юрий Дубровин, Михаил Погоржельский, Леонид Марков, Соломон Соколовский, Вацлав Дворжецкий, Гений Юхтин
О фильме:
Классический революционный детектив по роману Юрия Кларова. В январе 1918 года происходит одно из самых громких преступлений первых лет Революции — ограбление Патриаршей Ризницы Московского Кремля. Следственная группа МУРа во главе с Леонидом Косачевским начинает расследование. Но коллекция уникальных бриллиантов и золотые оклады икон будто бы растворились в воздухе. Есть только одна зацепка — оброненная кем-то под окнами ризницы табакерка с фамильным гербом рода Мессмеров...
Страна: СССР, Гостелерадио, Мосфильм
Продолжительность: 3 x ~ 01:04:00
Перевод: не требуется
Файл
Кодек: x264
Качество: SATRip-AVC
Видео: MPEG-4 AVC, ~ 1949 Кбит/с, 696x570@742x570, 702х570@748x570
Звук: AC3, 2 ch, 192 Кбит/с

Общее
Уникальный идентификатор : 219961368126842604256923244253241775306 (0xA57B04BF964BAED8ABC7AFC61AE594CA)
Полное имя : R:МОИ РИПЫЧёрный треугольник_1981-SATRip-AVCЧёрный треугольник-1.mkv
Формат : Matroska
Версия формата : Version 2
Размер файла : 969 Мбайт
Продолжительность : 1 ч. 3 м.
Общий поток : 2143 Кбит/сек
Дата кодирования : UTC 2014-07-25 21:53:42
Программа кодирования : mkvmerge v5.2.0 ('I can't explain') built on Dec 18 2011 18:12:03
Библиотека кодирования : libebml v1.2.3 + libmatroska v1.3.0
Видео
Идентификатор : 1
Формат : AVC
Формат/Информация : Advanced Video Codec
Профиль формата : High@L4.1
Параметр CABAC формата : Да
Параметр ReFrames формата : 15 кадров
Идентификатор кодека : V_MPEG4/ISO/AVC
Продолжительность : 1 ч. 3 м.
Битрейт : 1949 Кбит/сек
Ширина : 696 пикселей
Высота : 570 пикселей
Соотношение сторон : 4:3
Режим частоты кадров : Постоянный
Частота кадров : 25,000 кадров/сек
Цветовое пространство : YUV
Субдискретизация насыщенности : 4:2:0
Битовая глубина : 8 бит
Тип развёртки : Прогрессивная
Бит/(Пиксели*Кадры) : 0.197
Размер потока : 863 Мбайт (89%)
Библиотека кодирования : x264 core 142 r2431 ac76440
Настройки программы : cabac=1 / ref=15 / deblock=1:-2:-2 / analyse=0x3:0x133 / me=umh / subme=10 / psy=1 / psy_rd=1.09:0.20 / mixed_ref=1 / me_range=24 / chroma_me=1 / trellis=2 / 8x8dct=1 / cqm=0 / deadzone=21,11 / fast_pskip=0 / chroma_qp_offset=-3 / threads=12 / lookahead_threads=3 / sliced_threads=0 / nr=0 / decimate=0 / interlaced=0 / bluray_compat=0 / constrained_intra=0 / bframes=10 / b_pyramid=2 / b_adapt=2 / b_bias=0 / direct=3 / weightb=1 / open_gop=0 / weightp=2 / keyint=250 / keyint_min=25 / scenecut=40 / intra_refresh=0 / rc_lookahead=60 / rc=2pass / mbtree=1 / bitrate=1949 / ratetol=1.0 / qcomp=0.65 / qpmin=0 / qpmax=39 / qpstep=4 / cplxblur=20.0 / qblur=0.5 / ip_ratio=1.35 / aq=1:1.00
Язык : English
Default : Да
Forced : Нет
Цветовой диапазон : Limited
Основные цвета : BT.601 PAL
Характеристики трансфера : BT.470 System B, BT.470 System G
Коэффициенты матрицы : BT.601
Аудио
Идентификатор : 2
Формат : AC-3
Формат/Информация : Audio Coding 3
Расширение режима : CM (complete main)
Параметр Endianness формата : Big
Идентификатор кодека : A_AC3
Продолжительность : 1 ч. 3 м.
Вид битрейта : Постоянный
Битрейт : 192 Кбит/сек
Каналы : 2 канала
Расположение каналов : Front: L R
Частота : 48,0 КГц
Метод сжатия : С потерями
Задержка видео : 13 мс.
Размер потока : 86,8 Мбайт (9%)
Язык : Russian
Default : Да
Forced : Нет

Релиз от:
Автор релиза:



   Похожие торренты   Торрент   Размер 
В этой теме нет новых непрочитанных сообщений. Чёрный треугольник (1981) DVDRip

796 | 46

1.95 ГБ

В этой теме нет новых непрочитанных сообщений. Черный бизнес (1965) SATRip-AVC от ExKinoRay

48 | 6

1.34 ГБ

В этой теме нет новых непрочитанных сообщений. Мы, нижеподписавшиеся (1981) SATRip-AVC от ExKinoRay

93 | 18

2.46 ГБ

В этой теме нет новых непрочитанных сообщений. Наше призвание (1981) SATRip-AVC от ExKinoRay

19 | 8

3.22 ГБ

В этой теме нет новых непрочитанных сообщений. Американская трагедия (1981) SATRip-AVC от ExKinoRay

73 | 38

5.72 ГБ

В этой теме нет новых непрочитанных сообщений. Чёрный кот / The Black Cat (1981) DVDRip от Bathory | A

28 | 13

1.46 ГБ

В этой теме нет новых непрочитанных сообщений. Чёрный кот / The Black Cat (1981) DVDRip-AVC от Bathory | P, A

81 | 4

1.45 ГБ




Вы не можете начинать темы
Вы не можете отвечать на сообщения
Вы не можете редактировать свои сообщения
Вы не можете удалять свои сообщения
Вы не можете добавлять вложения

Перейти:  
Для Мосгорсуда, Роскомнадзора и рекламодателей: mosgorsud-torrent[собачка]yandex.ru
 Вход
ppkBB3cker v.2 © 2008-2014 @ PPK
[ Time : 0.028s | 14 Queries | GZIP : Off ]

Торрент трекер RUTOR.IN, Не можете зайти на rutor.org? Какой новый адрес рутор? Какое зеркало рутор? Не работает rutor.org и зеркала? Тогда наш торрент специально для вас. Rutor.in неофициальное зеркало rutor. В случае если у Вас заблокирован rutor или вдруг Вы не можете на него зайти, то Вы без труда сможете скачать бесплатно и без рекламы последние новинки кино, игр, сериалов и прочего у нас, на Rutor.in. Не нужно использовать прокси, чтобы зайти на рутор, достаточно воспользоваться нашим ресурсом. Все новые фильмы, игры, сериалы, книги и музыка за 2013 и 2014 годы через торрент бесплатно. Скачивайте фильмы в хорошем качестве, игры для пк, xbox, playstation без регистрации. У нас вы найдете новые Зарубежные сериалы и Русские сериалы 2013, 2014, 2015 годов. Оставайтесь с нами, качайте любимые фильмы, игры, сериалы, книги и музыку.