img image001 image001 image001 image001 image001 image001 image001 image001 image001 image001 image001 image001 image001 image001 image001

Planets Sun Sun Sun
Статистика раздачи
Автор: Nickolas3434 | Размер: 751.41 МБ | Добавлен: 19 апр 2016
Раздают: 93    Качают: 1
Скачать торрент
Скачать торрент
Описание торрента

СообщениеДобавлено: 19 апр 2016 


Информация о фильме
Оригинальное название: Не бойся, я с тобой! 1919
Год выхода: 2013
Жанр: Комедия, музыкальный фильм, боевик, приключения
Режиссер: Юлий Гусман
О фильме:
Действие разворачивается в 1919 году в Азербайджане. На фоне беспорядков и общей неопределенности возникает история двух влюбленных друг в друга молодых людей Фархада и Ширин. Но на их пути встает давняя вражда родителей, - Гафур Бека и Теймура, ярых политических противников. Теймур, отец девушки, является убежденным сторонником установления в Азербайджане цивилизованного демократического режима, в то время как родитель отчаянного Фархада Гафур Бек со своим ближайшим сподвижником, подлым и беспринципным бандитом Абдуллой, намеревается изменить политическую ситуацию за счет мирной революции. Чтобы на время устранить Теймура, он похищает очаровательную Ширин и, таким образом, отвлекает внимание любящего отца. Однако злодеи недооценивают силу простой человеческой дружбы и любви. Не теряя ни секунды, уже знакомые зрителю по первому фильму бесстрашные герои Рустам и Сан Саныч спешат на помощь давним знакомым, а Фархад твердо намерен вызволить любимую из плена и образумить отца...
Страна: Россия, Азербайджан
Студия: Группа компаний «ВайТ Медиа», «Азербайджанфильм» им. Дж. Джабарлы
Продолжительность: 01:49:26
Перевод: Не требуется
Файл
Кодек: XviD
Качество: HDTVRip
Видео: 624х352 (16:9), 25 fps, XviD 73, 822 kbps avg, 0.150 bit/pixel
Звук: 48 kHz, MPEG Layer 3, 2 ch, ~ 128 kbps avg
Полное имя : Ne.Bojsja.Ja.s.Toboj.1919.2013.XviD.HDTVRip.by.GeneralFilm.avi
Формат : AVI
Формат/Информация : Audio Video Interleave
Размер файла : 751 Мбайт
Продолжительность : 1 ч. 49 м.
Общий поток : 960 Кбит/сек
Программа кодирования : VirtualDubMod 1.5.10.3 | www.virtualdub-fr.org || (build 2550/release)
Библиотека кодирования : VirtualDubMod build 2550/release
Видео
Идентификатор : 0
Формат : MPEG-4 Visual
Профиль формата : Advanced Simple@L5
Параметр BVOP формата : 1
Параметр QPel формата : Нет
Параметр GMC формата : Без точки перехода
Параметр матрицы формата : Выборочная
Идентификатор кодека : XVID
Идентификатор кодека/Подсказка : XviD
Продолжительность : 1 ч. 49 м.
Битрейт : 822 Кбит/сек
Ширина : 624 пикселя
Высота : 352 пикселя
Соотношение сторон : 16:9
Частота кадров : 25,000 кадров/сек
Цветовое пространство : YUV
Субдискретизация насыщенности : 4:2:0
Битовая глубина : 8 бит
Тип развёртки : Прогрессивная
Метод сжатия : С потерями
Бит/(Пиксели*Кадры) : 0.150
Размер потока : 644 Мбайт (86%)
Библиотека кодирования : XviD 73
Аудио
Идентификатор : 1
Формат : MPEG Audio
Версия формата : Version 1
Профиль формата : Layer 3
Идентификатор кодека : 55
Идентификатор кодека/Подсказка : MP3
Продолжительность : 1 ч. 49 м.
Вид битрейта : Постоянный
Битрейт : 128 Кбит/сек
Каналы : 2 канала
Частота : 48,0 КГц
Метод сжатия : С потерями
Размер потока : 100 Мбайт (13%)
Выравнивание : Соединение по промежуткам
Продолжительность промежутка : 40 мс. (1,00 видеокадр)
Время предзагрузки промежутка : 504 мс.
Библиотека кодирования : LAME3.99r
Настройки программы : -m s -V 4 -q 0 -lowpass 17 -b 128








Релиз от:



   Похожие торренты   Торрент   Размер 
В этой теме нет новых непрочитанных сообщений. Не бойся, я с тобой! 1919 (2013) HDTVRip от Шкипер

316 | 4

756.26 МБ

В этой теме нет новых непрочитанных сообщений. Не бойся, я с тобой! 1919 (2013) HDTVRip-AVC от Files-x

127 | 5

1.37 ГБ

В этой теме нет новых непрочитанных сообщений. Не бойся, я с тобой! 1919 (2013) HDTVRip от Files-x

450 | 14

1.56 ГБ

В этой теме нет новых непрочитанных сообщений. Не бойся, я с тобой! 1919 (2013) HDTVRip 720p от MediaClub

88 | 2

3.4 ГБ

В этой теме нет новых непрочитанных сообщений. Не бойся, я с тобой! 1919 (2013) HDTV 1080i от MediaClub

58 | 1

6.22 ГБ

В этой теме нет новых непрочитанных сообщений. Не бойся, я с тобой! (1981) HDTVRip

63 | 4

1.45 ГБ

В этой теме нет новых непрочитанных сообщений. Не бойся, я с тобой! (1981) HDTVRip от New-Team

455 | 13

977.64 МБ




Вы не можете начинать темы
Вы не можете отвечать на сообщения
Вы не можете редактировать свои сообщения
Вы не можете удалять свои сообщения
Вы не можете добавлять вложения

Перейти:  
Для Мосгорсуда, Роскомнадзора и рекламодателей: mosgorsud-torrent[собачка]yandex.ru
 Вход
ppkBB3cker v.2 © 2008-2014 @ PPK
[ Time : 0.047s | 15 Queries | GZIP : Off ]

Торрент трекер RUTOR.IN, Не можете зайти на rutor.org? Какой новый адрес рутор? Какое зеркало рутор? Не работает rutor.org и зеркала? Тогда наш торрент специально для вас. Rutor.in неофициальное зеркало rutor. В случае если у Вас заблокирован rutor или вдруг Вы не можете на него зайти, то Вы без труда сможете скачать бесплатно и без рекламы последние новинки кино, игр, сериалов и прочего у нас, на Rutor.in. Не нужно использовать прокси, чтобы зайти на рутор, достаточно воспользоваться нашим ресурсом. Все новые фильмы, игры, сериалы, книги и музыка за 2013 и 2014 годы через торрент бесплатно. Скачивайте фильмы в хорошем качестве, игры для пк, xbox, playstation без регистрации. У нас вы найдете новые Зарубежные сериалы и Русские сериалы 2013, 2014, 2015 годов. Оставайтесь с нами, качайте любимые фильмы, игры, сериалы, книги и музыку.
cron