img image001 image001 image001 image001 image001 image001 image001 image001 image001 image001 image001 image001 image001 image001 image001

Planets Sun Sun Sun
Статистика раздачи
Автор: Nickolas3434 | Размер: 756.26 МБ | Добавлен: 20 апр 2016
Раздают: 330    Качают: 6
Скачать торрент
Скачать торрент
Описание торрента

СообщениеДобавлено: 20 апр 2016 


Информация о фильме
Название: Не бойся, я с тобой! 1919
Год выхода: 2013
Жанр: Комедия, музыкальный фильм, боевик, приключения
Режиссер: Юлий Гусман
В ролях: Полад Бюль-Бюль-оглы, Лев Дуров, Мухтарбек Кантемиров, Эльдар Касимов, Кристина Гюльалиева, Михаил Ефремов, Бахрам Багирзаде, Тимур Бадалбейли, Игорь Золотовицкий, Заур Шафиев...
О фильме:
Действие разворачивается в 1919 году в Азербайджане. На фоне беспорядков и общей неопределенности возникает история двух влюбленных друг в друга молодых людей Фархада и Ширин. Но на их пути встает давняя вражда родителей, - Гафур Бека и Теймура, ярых политических противников. Теймур, отец девушки, является убежденным сторонником установления в Азербайджане цивилизованного демократического режима, в то время как родитель отчаянного Фархада Гафур Бек со своим ближайшим сподвижником, подлым и беспринципным бандитом Абдуллой, намеревается изменить политическую ситуацию за счет мирной революции. Чтобы на время устранить Теймура, он похищает очаровательную Ширин и, таким образом, отвлекает внимание любящего отца. Однако злодеи недооценивают силу простой человеческой дружбы и любви. Не теряя ни секунды, уже знакомые зрителю по первому фильму бесстрашные герои Рустам и Сан Саныч спешат на помощь давним знакомым, а Фархад твердо намерен вызволить любимую из плена и образумить отца...

Страна: Россия, Азербайджан
Студия: Группа компаний «ВайТ Медиа», «Азербайджанфильм» им. Дж. Джабарлы
Продолжительность: 01:49:26
Перевод: Не требуется
Файл
Кодек: XviD
Качество: HDTVRip
Видео: 624x336 (1.85:1), 25 fps, XviD build 50 ~828 kbps avg, 0.158 bit/pixel
Звук: 48 kHz, MPEG Layer 3, 2 ch, ~128.00 kbps avg
Субтитры: Частично(на азербайджанскую речь)
Семпл
General
Complete name : D:Изготовление рипаNe.boysya.ya.s.toboy.(1919).2013.HDTVRip.shkiper.avi
Format : AVI
Format/Info : Audio Video Interleave
File size : 756 MiB
Duration : 1h 49mn
Overall bit rate : 966 Kbps
Writing application : VirtualDubMod 1.5.10.3 | www.virtualdub-fr.org || (build 2550/release)
Writing library : VirtualDubMod build 2550/release
Video
ID : 0
Format : MPEG-4 Visual
Format profile : Advanced Simple@L5
Format settings, BVOP : 1
Format settings, QPel : No
Format settings, GMC : No warppoints
Format settings, Matrix : Custom
Codec ID : XVID
Codec ID/Hint : XviD
Duration : 1h 49mn
Bit rate : 828 Kbps
Width : 624 pixels
Height : 336 pixels
Display aspect ratio : 1.85:1
Frame rate : 25.000 fps
Color space : YUV
Chroma subsampling : 4:2:0
Bit depth : 8 bits
Scan type : Progressive
Compression mode : Lossy
Bits/(Pixel*Frame) : 0.158
Stream size : 648 MiB (86%)
Writing library : XviD 1.2.1 (UTC 2008-12-04)
Audio
ID : 1
Format : MPEG Audio
Format version : Version 1
Format profile : Layer 3
Codec ID : 55
Codec ID/Hint : MP3
Duration : 1h 49mn
Bit rate mode : Constant
Bit rate : 128 Kbps
Channel(s) : 2 channels
Sampling rate : 48.0 KHz
Compression mode : Lossy
Stream size : 100 MiB (13%)
Alignment : Aligned on interleaves
Interleave, duration : 40 ms (1.00 video frame)
Interleave, preload duration : 504 ms
Writing library : LAME3.99r
Encoding settings : -m s -V 4 -q 2 -lowpass 17 -b 128

Релиз от:



   Похожие торренты   Торрент   Размер 
В этой теме нет новых непрочитанных сообщений. Не бойся, я с тобой! 1919 (2013) HDTVRip от Files-x

537 | 16

1.56 ГБ

В этой теме нет новых непрочитанных сообщений. Не бойся, я с тобой! 1919 (2013) HDTVRip от GeneralFilm

83 | 1

751.41 МБ

В этой теме нет новых непрочитанных сообщений. Не бойся, я с тобой! 1919 (2013) HDTVRip-AVC от Files-x

628 | 63

1.37 ГБ

В этой теме нет новых непрочитанных сообщений. Не бойся, я с тобой! 1919 (2013) HDTVRip 720p от MediaClub

246 | 12

3.4 ГБ

В этой теме нет новых непрочитанных сообщений. Не бойся, я с тобой! 1919 (2013) HDTV 1080i от MediaClub

198 | 11

6.22 ГБ

В этой теме нет новых непрочитанных сообщений. Жажда (2013) HDTVRip от Шкипер

136 | 8

745.64 МБ

В этой теме нет новых непрочитанных сообщений. Альпинисты (2013) HDTVRip от Шкипер

43 | 4

744.74 МБ




Вы не можете начинать темы
Вы не можете отвечать на сообщения
Вы не можете редактировать свои сообщения
Вы не можете удалять свои сообщения
Вы не можете добавлять вложения

Перейти:  
Для Мосгорсуда, Роскомнадзора и рекламодателей: mosgorsud-torrent[собачка]yandex.ru
 Вход
ppkBB3cker v.2 © 2008-2014 @ PPK
[ Time : 0.032s | 15 Queries | GZIP : Off ]

Торрент трекер RUTOR.IN, Не можете зайти на rutor.org? Какой новый адрес рутор? Какое зеркало рутор? Не работает rutor.org и зеркала? Тогда наш торрент специально для вас. Rutor.in неофициальное зеркало rutor. В случае если у Вас заблокирован rutor или вдруг Вы не можете на него зайти, то Вы без труда сможете скачать бесплатно и без рекламы последние новинки кино, игр, сериалов и прочего у нас, на Rutor.in. Не нужно использовать прокси, чтобы зайти на рутор, достаточно воспользоваться нашим ресурсом. Все новые фильмы, игры, сериалы, книги и музыка за 2013 и 2014 годы через торрент бесплатно. Скачивайте фильмы в хорошем качестве, игры для пк, xbox, playstation без регистрации. У нас вы найдете новые Зарубежные сериалы и Русские сериалы 2013, 2014, 2015 годов. Оставайтесь с нами, качайте любимые фильмы, игры, сериалы, книги и музыку.