img image001 image001 image001 image001 image001 image001 image001 image001 image001 image001 image001 image001 image001 image001 image001

Planets Sun Sun Sun
Статистика раздачи
Автор: Nickolas3434 | Размер: 1.68 ГБ | Добавлен: 22 апр 2016
Раздают: 462    Качают: 23
Скачать торрент
Скачать торрент
Описание торрента

СообщениеДобавлено: 22 апр 2016 


Информация о фильме
Оригинальное название: СуперБобровы
Год выпуска: 2016
Жанр: Комедия, семейный
Выпущено: Россия, KeyStone Production, Yellow, Black and White
Режиссер: Дмитрий Дьяченко
В ролях: Павел Деревянко, Оксана Акиньшина, Роман Мадянов, Владимир Толоконников, Ирина Пегова, Даниил Вахрушев, Софья Мицкевич, Виталий Кищенко, Алексей Хардиков, Андрей Ребенков, Александр Карпиловский, Эльберд Агаев, Анжела Белянская, Павел Ворожцов, Максим Заусалин, Максим Емельянов, Юрий Горин, Александр Егерев, Дмитрий Межевич, Сергей Афанасьев, Владимир Тимофеев, Александр Обласов, Алексей Матошин, Сергей Волобуев, Валерий Панков, Анастасия Попова (II), Анжела Кольцова, Елена Нестерова, Ольга Ергина, Мария Лаврова
О фильме: Вместо десерта на ужин семейство Бобровых получило... метеорит. Настоящий, большой, из космоса. Благодаря ему Бобровы вдруг приобретают немыслимые сверхспособности. Дед становится бессмертным, а отец теперь может телепортироваться. Сын начинает понимать собачий язык, а его сёстры получают суперсилу, возможность летать и быть невидимой. Единственное ограничение - способности действуют только когда вся семейка в сборе. Короче, у заурядной, среднестатистической ячейки общества появляется шанс превратиться в отряд настоящих супергероев. Вот только вместо того, чтобы спасать мир, они решают ограбить ближайший банк…

Файл
Качество: WEB-DLRip (AVC)
Видео: MPEG-4 AVC, 2143 Кбит/с, 1024х428, 24 кадр/с
Аудио: AC3, 6 ch, 384 Кбит/с
Размер: 1.68 ГБ
Продолжительность: 01:35:12
Язык: Русский
Озвучивание - iTunes Russia
Сохранены оригинальные чаптеры как на исходном WEB-DL.
x264 [info]: frame I:1948 Avg QP:15.90 size: 60505
x264 [info]: frame P:39471 Avg QP:18.65 size: 20975
x264 [info]: frame B:95669 Avg QP:20.54 size: 6107
x264 [info]: consecutive B-frames: 4.0% 9.9% 8.4% 64.5% 6.0% 4.9% 1.2% 0.8% 0.1% 0.3%
x264 [info]: mb I I16..4: 7.3% 68.2% 24.5%
x264 [info]: mb P I16..4: 1.0% 12.3% 1.9% P16..4: 30.1% 35.1% 11.8% 2.0% 0.2% skip: 5.6%
x264 [info]: mb B I16..4: 0.1% 1.3% 0.2% B16..8: 34.1% 22.4% 3.4% direct: 5.7% skip:32.6% L0:34.3% L1:48.8% BI:16.9%
x264 [info]: 8x8 transform intra:77.9% inter:55.6%
x264 [info]: direct mvs spatial:99.3% temporal:0.7%
x264 [info]: coded y,uvDC,uvAC intra: 89.8% 89.9% 71.2% inter: 21.5% 28.0% 16.1%
x264 [info]: i16 v,h,dc,p: 23% 12% 8% 57%
x264 [info]: i8 v,h,dc,ddl,ddr,vr,hd,vl,hu: 13% 10% 6% 8% 11% 12% 12% 12% 14%
x264 [info]: i4 v,h,dc,ddl,ddr,vr,hd,vl,hu: 16% 11% 4% 7% 13% 13% 12% 10% 12%
x264 [info]: i8c dc,h,v,p: 38% 23% 20% 19%
x264 [info]: Weighted P-Frames: Y:1.2% UV:0.5%
x264 [info]: ref P L0: 64.6% 7.6% 12.7% 4.9% 3.4% 2.4% 1.8% 1.1% 0.8% 0.7% 0.1% 0.0%
x264 [info]: ref B L0: 86.2% 8.5% 2.4% 1.1% 0.7% 0.5% 0.4% 0.2% 0.1%
x264 [info]: ref B L1: 96.6% 3.4%
x264 [info]: kb/s:2142.87

Общее
Уникальный идентификатор : 196251241894420435117037815309861840397 (0x93A49D454E271A57B6E22F4A4DF6E60D)
Полное имя : D:ЗагрузкиSuperBobrovy.2016.x264.WEB-DLRip.AVC.ExKinoRay.mkv
Формат : Matroska
Версия формата : Version 2
Размер файла : 1,68 Гбайт
Продолжительность : 1 ч. 35 м.
Общий поток : 2529 Кбит/сек
Название фильма : СуперБобровы.2016.Rip by: ollan
Дата кодирования : UTC 2016-04-21 05:53:00
Программа кодирования : mkvmerge v5.6.0 ('Kenya Kane') built on May 27 2012 16:44:04
Библиотека кодирования : libebml v1.2.3 + libmatroska v1.3.0
Attachements : Cover - SuperBobrovy.png
Видео
Идентификатор : 1
Формат : AVC
Формат/Информация : Advanced Video Codec
Профиль формата : High@L4.1
Параметр CABAC формата : Да
Параметр ReFrames формата : 10 кадров
Идентификатор кодека : V_MPEG4/ISO/AVC
Продолжительность : 1 ч. 35 м.
Битрейт : 2143 Кбит/сек
Ширина : 1024 пикселя
Высота : 428 пикселей
Соотношение сторон : 2,40:1
Режим частоты кадров : Постоянный
Частота кадров : 24,000 кадра/сек
Цветовое пространство : YUV
Субдискретизация насыщенности : 4:2:0
Битовая глубина : 8 бит
Тип развёртки : Прогрессивная
Бит/(Пиксели*Кадры) : 0.204
Размер потока : 1,39 Гбайт (83%)
Библиотека кодирования : x264 core 146 r2538 121396c
Настройки программы : cabac=1 / ref=10 / deblock=1:-3:-3 / analyse=0x3:0x133 / me=umh / subme=11 / psy=1 / psy_rd=1.00:0.10 / mixed_ref=1 / me_range=48 / chroma_me=1 / trellis=2 / 8x8dct=1 / cqm=0 / deadzone=21,11 / fast_pskip=0 / chroma_qp_offset=-3 / threads=12 / lookahead_threads=2 / sliced_threads=0 / nr=0 / decimate=0 / interlaced=0 / bluray_compat=0 / constrained_intra=0 / bframes=9 / b_pyramid=2 / b_adapt=2 / b_bias=0 / direct=3 / weightb=1 / open_gop=0 / weightp=2 / keyint=240 / keyint_min=23 / scenecut=40 / intra_refresh=0 / rc_lookahead=40 / rc=2pass / mbtree=0 / bitrate=2143 / ratetol=1.0 / qcomp=0.60 / qpmin=0 / qpmax=69 / qpstep=4 / cplxblur=20.0 / qblur=0.5 / vbv_maxrate=50000 / vbv_bufsize=62500 / nal_hrd=none / filler=0 / ip_ratio=1.40 / pb_ratio=1.30 / aq=1:1.00
Язык : Russian
Default : Да
Forced : Нет
Аудио
Идентификатор : 2
Формат : AC-3
Формат/Информация : Audio Coding 3
Расширение режима : CM (complete main)
Параметр Endianness формата : Big
Идентификатор кодека : A_AC3
Продолжительность : 1 ч. 35 м.
Вид битрейта : Постоянный
Битрейт : 384 Кбит/сек
Каналы : 6 каналов
Расположение каналов : Front: L C R, Side: L R, LFE
Частота : 48,0 КГц
Частота кадров : 31,250 кадров/сек (1536 spf)
Метод сжатия : С потерями
Размер потока : 261 Мбайт (15%)
Заголовок : iTunes Russia
Язык : Russian
Default : Да
Forced : Нет
Меню
00:00:00.000 : ru:Chapter 01
00:05:48.000 : ru:Chapter 02
00:11:31.541 : ru:Chapter 03
00:17:33.541 : ru:Chapter 04
00:23:10.749 : ru:Chapter 05
00:28:51.874 : ru:Chapter 06
00:34:25.707 : ru:Chapter 07
00:41:08.665 : ru:Chapter 08
00:47:43.540 : ru:Chapter 09
00:53:00.456 : ru:Chapter 10
00:58:34.622 : ru:Chapter 11
01:03:53.705 : ru:Chapter 12
01:09:34.580 : ru:Chapter 13
01:16:31.871 : ru:Chapter 14
01:22:49.287 : ru:Chapter 15
01:29:28.162 : ru:Chapter 16





Релиз от: Rip by:



   Похожие торренты   Торрент   Размер 
В этой теме нет новых непрочитанных сообщений. Одноклассницы (2016) WEB-DLRip-AVC от ExKinoRay | iTunes Russia

3173 | 85

744.16 МБ

В этой теме нет новых непрочитанных сообщений. Диггеры (2016) WEB-DLRip-AVC от ExKinoRay | iTunes Russia

320 | 14

1.3 ГБ

В этой теме нет новых непрочитанных сообщений. Диггеры (2016) WEB-DLRip от ExKinoRay | iTunes Russia

335 | 118

1.45 ГБ

В этой теме нет новых непрочитанных сообщений. 8 лучших свиданий (2016) WEB-DLRip-AVC от ExKinoRay | iTunes Russia

1123 | 27

1.8 ГБ

В этой теме нет новых непрочитанных сообщений. Варкрафт / Warcraft (2016) WEB-DLRip-AVC от ExKinoRay | iTunes Russia

1088 | 164

1.46 ГБ

В этой теме нет новых непрочитанных сообщений. Завтрак у папы (2016) WEB-DLRip-AVC от ExKinoRay | iTunes Russia

701 | 15

1.42 ГБ

В этой теме нет новых непрочитанных сообщений. Варкрафт / Warcraft (2016) WEB-DLRip-AVC от ExKinoRay | iTunes Russia

1123 | 57

2.7 ГБ




Вы не можете начинать темы
Вы не можете отвечать на сообщения
Вы не можете редактировать свои сообщения
Вы не можете удалять свои сообщения
Вы не можете добавлять вложения

Перейти:  
Для Мосгорсуда, Роскомнадзора и рекламодателей: mosgorsud-torrent[собачка]yandex.ru
 Вход
ppkBB3cker v.2 © 2008-2014 @ PPK
[ Time : 0.059s | 14 Queries | GZIP : On ]

Торрент трекер RUTOR.IN, Не можете зайти на rutor.org? Какой новый адрес рутор? Какое зеркало рутор? Не работает rutor.org и зеркала? Тогда наш торрент специально для вас. Rutor.in неофициальное зеркало rutor. В случае если у Вас заблокирован rutor или вдруг Вы не можете на него зайти, то Вы без труда сможете скачать бесплатно и без рекламы последние новинки кино, игр, сериалов и прочего у нас, на Rutor.in. Не нужно использовать прокси, чтобы зайти на рутор, достаточно воспользоваться нашим ресурсом. Все новые фильмы, игры, сериалы, книги и музыка за 2013 и 2014 годы через торрент бесплатно. Скачивайте фильмы в хорошем качестве, игры для пк, xbox, playstation без регистрации. У нас вы найдете новые Зарубежные сериалы и Русские сериалы 2013, 2014, 2015 годов. Оставайтесь с нами, качайте любимые фильмы, игры, сериалы, книги и музыку.