img image001 image001 image001 image001 image001 image001 image001 image001 image001 image001 image001 image001 image001 image001 image001

Planets Sun Sun Sun
Статистика раздачи
Автор: Nickolas3434 | Размер: 1.46 ГБ | Добавлен: 25 апр 2016
Раздают: 52    Качают: 5
Скачать торрент
Скачать торрент
Описание торрента

СообщениеДобавлено: 25 апр 2016 

Страна: СССР, Болгария
Производство: Ленфильм, Болгарфильм
Жанр: драма, военный, история
Год выпуска: 1954
Продолжительность: 01:56:34
Перевод: Не требуется
Cубтитры: нет
Оригинальная аудиодорожка: русский
Режиссер: Сергей Васильев
В ролях:
Иван Переверзев, Виктор Авдюшко, Георгий Юматов, Константин Сорокин, Анатолий Алексеев, Петко Карлуковский, Апостол Карамитев, Стефан Пейчев, Н. Генов, Жени Божинова, Катя Чукова, Сергей Папов, Евгений Самойлов, Александр Киреев, Г. Громов, Владимир Чобур, Александр Смирнов, Атанас Христов, Евгений Деммени, Михаил Трояновский, Эдгар Гаррик, Иван Кононенко-Козельский, Алексей Савостьянов, Николай Массалитинов, Сергей Курилов, Александр Холодков, Константин Старостин, Ганчо Ганчев, Василий Леонов, Дако Даковский, Константин Кисимов, Энчо Тагаров, Георгий Стаматов...
Полный список актёров
Описание:
70-е годы XIX века. Балканский полуостров - под пятой Османской империи. Среди передовой русской интеллигенции проходит широкая волна возмущения, во главе которой - писатель Гаршин и хирург Пирогов. Чтобы разрядить напряженную обстановку в России, в 1877 году царское правительство объявляет Турции войну. В разыгравшейся войне сталкиваются интересы ряда государств: Англии нужны проливы, Германия и Австрия ждут ослабления будущего противника в лице России...





Источник: DVD9 R5
Качество видео: DVDRip
Формат видео: AVI
Видео: 688x512 (4:3), 25 fps, XviD ~ 1590 kbps avg, 0.181 bit/pixel
Аудио: 48 kHz, Dolby Digital AC3 2.0, 192 kbps
Раздача от:
Общее
Полное имя : Geroi.Shipki.1954.DVDRip_[New-team]_by_AVP_Studio.avi
Формат : AVI
Формат/Информация : Audio Video Interleave
Размер файла : 1,46 Гбайт
Продолжительность : 1 ч. 56 м.
Общий поток : 1792 Кбит/сек
Программа кодирования : VirtualDubMod 1.5.10.3 | www.virtualdub-fr.org || (build 2550/release)
Библиотека кодирования : VirtualDubMod build 2550/release
Видео
Идентификатор : 0
Формат : MPEG-4 Visual
Профиль формата : Advanced Simple@L5
Параметр BVOP формата : 1
Параметр QPel формата : Нет
Параметр GMC формата : Без точки перехода
Параметр матрицы формата : Выборочная
Идентификатор кодека : XVID
Идентификатор кодека/Подсказка : XviD
Продолжительность : 1 ч. 56 м.
Битрейт : 1590 Кбит/сек
Ширина : 688 пикселей
Высота : 512 пикселей
Соотношение сторон : 4:3
Частота кадров : 25,000 кадров/сек
Цветовое пространство : YUV
Субдискретизация насыщенности : 4:2:0
Битовая глубина : 8 бит
Тип развёртки : Прогрессивная
Метод сжатия : С потерями
Бит/(Пиксели*Кадры) : 0.181
Размер потока : 1,29 Гбайт (89%)
Библиотека кодирования : XviD 1.2.1 (UTC 2008-12-04)
Аудио
Идентификатор : 1
Формат : AC-3
Формат/Информация : Audio Coding 3
Расширение режима : CM (complete main)
Параметр Endianness формата : Big
Идентификатор кодека : 2000
Продолжительность : 1 ч. 56 м.
Вид битрейта : Постоянный
Битрейт : 192 Кбит/сек
Каналы : 2 канала
Расположение каналов : Front: L R
Частота : 48,0 КГц
Частота кадров : 31,250 кадров/сек (1536 spf)
Метод сжатия : С потерями
Размер потока : 160 Мбайт (11%)
Выравнивание : Разделение по промежуткам
Продолжительность промежутка : 40 мс. (1,00 видеокадр)
Время предзагрузки промежутка : 500 мс


[/hide]



   Похожие торренты   Торрент   Размер 
В этой теме нет новых непрочитанных сообщений. Большая семья (1954) DVDRip от New-Team

8 | 5

1.09 ГБ

В этой теме нет новых непрочитанных сообщений. Большая семья (1954) DVDRip-AVC от New-Team

68 | 8

1.46 ГБ

В этой теме нет новых непрочитанных сообщений. Большая семья (1954) DVDRip от New-Team

25 | 6

745.02 МБ

В этой теме нет новых непрочитанных сообщений. Большая семья (1954) DVDRip от New-Team

36 | 1

1.46 ГБ

В этой теме нет новых непрочитанных сообщений. Большая семья (1954) DVDRip от KinoZalSat

469 | 36

1.66 ГБ

В этой теме нет новых непрочитанных сообщений. Одна семья (1943) DVDRip-AVC от New-Team

13 | 9

1.09 ГБ

В этой теме нет новых непрочитанных сообщений. Одна семья (1943) DVDRip от New-Team

6 | 12

743.32 МБ




Вы не можете начинать темы
Вы не можете отвечать на сообщения
Вы не можете редактировать свои сообщения
Вы не можете удалять свои сообщения
Вы не можете добавлять вложения

Перейти:  
Для Мосгорсуда, Роскомнадзора и рекламодателей: mosgorsud-torrent[собачка]yandex.ru
 Вход
ppkBB3cker v.2 © 2008-2014 @ PPK
[ Time : 0.514s | 15 Queries | GZIP : Off ]

Торрент трекер RUTOR.IN, Не можете зайти на rutor.org? Какой новый адрес рутор? Какое зеркало рутор? Не работает rutor.org и зеркала? Тогда наш торрент специально для вас. Rutor.in неофициальное зеркало rutor. В случае если у Вас заблокирован rutor или вдруг Вы не можете на него зайти, то Вы без труда сможете скачать бесплатно и без рекламы последние новинки кино, игр, сериалов и прочего у нас, на Rutor.in. Не нужно использовать прокси, чтобы зайти на рутор, достаточно воспользоваться нашим ресурсом. Все новые фильмы, игры, сериалы, книги и музыка за 2013 и 2014 годы через торрент бесплатно. Скачивайте фильмы в хорошем качестве, игры для пк, xbox, playstation без регистрации. У нас вы найдете новые Зарубежные сериалы и Русские сериалы 2013, 2014, 2015 годов. Оставайтесь с нами, качайте любимые фильмы, игры, сериалы, книги и музыку.