img image001 image001 image001 image001 image001 image001 image001 image001 image001 image001 image001 image001 image001 image001 image001

Planets Sun Sun Sun
Статистика раздачи
Автор: Nickolas3434 | Размер: 1.46 ГБ | Добавлен: 25 апр 2016
Раздают: 75    Качают: 3
Скачать торрент
Скачать торрент
Описание торрента

СообщениеДобавлено: 25 апр 2016 

Страна: СССР, Болгария
Производство: Ленфильм, Болгарфильм
Жанр: драма, военный, история
Год выпуска: 1954
Продолжительность: 01:56:34
Перевод: Не требуется
Cубтитры: нет
Оригинальная аудиодорожка: русский
Режиссер: Сергей Васильев
В ролях:
Иван Переверзев, Виктор Авдюшко, Георгий Юматов, Константин Сорокин, Анатолий Алексеев, Петко Карлуковский, Апостол Карамитев, Стефан Пейчев, Н. Генов, Жени Божинова, Катя Чукова, Сергей Папов, Евгений Самойлов, Александр Киреев, Г. Громов, Владимир Чобур, Александр Смирнов, Атанас Христов, Евгений Деммени, Михаил Трояновский, Эдгар Гаррик, Иван Кононенко-Козельский, Алексей Савостьянов, Николай Массалитинов, Сергей Курилов, Александр Холодков, Константин Старостин, Ганчо Ганчев, Василий Леонов, Дако Даковский, Константин Кисимов, Энчо Тагаров, Георгий Стаматов...
Полный список актёров
Описание:
70-е годы XIX века. Балканский полуостров - под пятой Османской империи. Среди передовой русской интеллигенции проходит широкая волна возмущения, во главе которой - писатель Гаршин и хирург Пирогов. Чтобы разрядить напряженную обстановку в России, в 1877 году царское правительство объявляет Турции войну. В разыгравшейся войне сталкиваются интересы ряда государств: Англии нужны проливы, Германия и Австрия ждут ослабления будущего противника в лице России...






Источник: DVD9 R5
Качество видео: DVDRip-AVC
Формат видео: MKV
Видео: 696->762x572 (4:3), 25 fps, H264 ~ 1597 kbps avg, 0.160 bit/pixel
Аудио: 48 kHz, Dolby Digital AC3 2.0, 192 kbps
Раздача от:
Общее
Полное имя : Geroi.Shipki.1954.DVDRip-AVC_[New-team]_by_AVP_Studio.mkv
Формат : Matroska
Версия формата : Version 2
Размер файла : 1,46 Гбайт
Продолжительность : 1 ч. 56 м.
Общий поток : 1791 Кбит/сек
Дата кодирования : UTC 2016-04-24 12:23:19
Программа кодирования : mkvmerge v6.1.0 ('Old Devil') built on Mar 4 2013 09:10:42
Библиотека кодирования : libebml v1.3.0 + libmatroska v1.4.0
Видео
Идентификатор : 1
Формат : AVC
Формат/Информация : Advanced Video Codec
Профиль формата : High@L4.1
Параметр CABAC формата : Да
Параметр ReFrames формата : 10 кадров
Идентификатор кодека : V_MPEG4/ISO/AVC
Продолжительность : 1 ч. 56 м.
Битрейт : 1597 Кбит/сек
Ширина : 696 пикселей
Высота : 572 пикселя
Соотношение сторон : 4:3
Режим частоты кадров : Постоянный
Частота кадров : 25,000 кадров/сек
Цветовое пространство : YUV
Субдискретизация насыщенности : 4:2:0
Битовая глубина : 8 бит
Тип развёртки : Прогрессивная
Бит/(Пиксели*Кадры) : 0.160
Размер потока : 1,27 Гбайт (87%)
Библиотека кодирования : x264 core 148 r2597 e86f3a1
Настройки программы : cabac=1 / ref=10 / deblock=1:-2:-1 / analyse=0x3:0x113 / me=umh / subme=10 / psy=1 / psy_rd=1.00:0.00 / mixed_ref=1 / me_range=32 / chroma_me=1 / trellis=2 / 8x8dct=1 / cqm=0 / deadzone=21,11 / fast_pskip=1 / chroma_qp_offset=-2 / threads=6 / lookahead_threads=1 / sliced_threads=0 / nr=0 / decimate=0 / interlaced=0 / bluray_compat=0 / constrained_intra=0 / bframes=8 / b_pyramid=2 / b_adapt=2 / b_bias=0 / direct=3 / weightb=1 / open_gop=0 / weightp=2 / keyint=250 / keyint_min=25 / scenecut=40 / intra_refresh=0 / rc=2pass / mbtree=0 / bitrate=1597 / ratetol=1.0 / qcomp=0.60 / qpmin=0 / qpmax=69 / qpstep=4 / cplxblur=20.0 / qblur=0.5 / ip_ratio=1.40 / pb_ratio=1.30 / aq=1:1.00
Default : Да
Forced : Нет
Аудио
Идентификатор : 2
Формат : AC-3
Формат/Информация : Audio Coding 3
Расширение режима : CM (complete main)
Параметр Endianness формата : Big
Идентификатор кодека : A_AC3
Продолжительность : 1 ч. 56 м.
Вид битрейта : Постоянный
Битрейт : 192 Кбит/сек
Каналы : 2 канала
Расположение каналов : Front: L R
Частота : 48,0 КГц
Частота кадров : 31,250 кадров/сек (1536 spf)
Метод сжатия : С потерями
Размер потока : 160 Мбайт (11%)
Default : Да
Forced : Нет





   Похожие торренты   Торрент   Размер 
В этой теме нет новых непрочитанных сообщений. Герои Шипки / Героите на Шипка (1954) DVDRip

45 | 21

1.48 ГБ

В этой теме нет новых непрочитанных сообщений. Герои Шипки / Героите на Шипка (1954) DVD5

1 | 2

4.37 ГБ

В этой теме нет новых непрочитанных сообщений. Андриеш (1954) DVDRip от New-Team

3 | 0

744.13 МБ

В этой теме нет новых непрочитанных сообщений. Андриеш (1954) DVDRip-AVC от New-Team

5 | 0

744.17 МБ

В этой теме нет новых непрочитанных сообщений. Брест. Крепостные Герои (2010) DVDRip-AVC от New-Team

82 | 16

743.78 МБ

В этой теме нет новых непрочитанных сообщений. Брест. Крепостные Герои (2010) DVDRip от New-Team

64 | 20

744.08 МБ

В этой теме нет новых непрочитанных сообщений. Большая семья (1954) DVDRip от New-Team

33 | 0

1.46 ГБ




Вы не можете начинать темы
Вы не можете отвечать на сообщения
Вы не можете редактировать свои сообщения
Вы не можете удалять свои сообщения
Вы не можете добавлять вложения

Перейти:  
Для Мосгорсуда, Роскомнадзора и рекламодателей: mosgorsud-torrent[собачка]yandex.ru
 Вход
ppkBB3cker v.2 © 2008-2014 @ PPK
[ Time : 0.059s | 17 Queries | GZIP : Off ]

cron