img image001 image001 image001 image001 image001 image001 image001 image001 image001 image001 image001 image001 image001 image001 image001

Planets Sun Sun Sun
Статистика раздачи
Автор: Nickolas3434 | Размер: 1.46 ГБ | Добавлен: 26 апр 2016
Раздают: 81    Качают: 5
Скачать торрент
Скачать торрент
Описание торрента

СообщениеДобавлено: 26 апр 2016 


Информация о фильме
Оригинальное название: Жажда
Год выпуска: 2013
Жанр: Драма
Режиссер: Дмитрий Тюрин
В ролях: Михаил Грубов, Сергей Лавыгин, Роман Курцын, Никита Остриков, Алексей Гуськов, Галина Бокашевская, Анна Банщикова, Светлана Смирнова-Марцинкевич, Георгий Соловьев, Андрей Попович
О фильме:
Костя, талантливый художник, возвращается из Чечни с обожжённым лицом и стойкой обидой на жизнь. Он замыкается в себе, мало с кем общается и рисует мрачные портреты в духе Гойи. Однажды бесследно пропадает его фронтовой друг, который во время боевой операции спас ему жизнь. Костя вместе с двумя товарищами отправляется на его поиски. Так, ведомый обстоятельствами, он начинает выходить за пределы замкнутого круга и пытается увидеть мир под другим углом.

Страна: Россия
Студия: Всемирные Русские Студии
Продолжительность: 01:35:19
Файл
Формат: avi
Качество: HDTVRip
Видео: XviD build 73, 1987 Кбит/с, 720x400, 25 fps, 0.276 bit/pixel
Аудио: AC3, 2 ch, 192 Кбит/с
Язык: Русский
Zhazhda.2013.XviD.HDTVRip.by.GeneralFilm.avi
Формат : AVI
Формат/Информация : Audio Video Interleave
Размер файла : 1,46 Гбайт
Продолжительность : 1 ч. 35 м.
Общий поток : 2189 Кбит/сек
Программа кодирования : VirtualDubMod 1.5.10.3 | www.virtualdub-fr.org || (build 2550/release)
Библиотека кодирования : VirtualDubMod build 2550/release
Видео
Идентификатор : 0
Формат : MPEG-4 Visual
Профиль формата : Advanced Simple@L5
Параметр BVOP формата : 1
Параметр QPel формата : Нет
Параметр GMC формата : Без точки перехода
Параметр матрицы формата : Выборочная
Идентификатор кодека : XVID
Идентификатор кодека/Подсказка : XviD
Продолжительность : 1 ч. 35 м.
Битрейт : 1987 Кбит/сек
Ширина : 720 пикселей
Высота : 400 пикселей
Соотношение сторон : 16:9
Частота кадров : 25,000 кадров/сек
Цветовое пространство : YUV
Субдискретизация насыщенности : 4:2:0
Битовая глубина : 8 бит
Тип развёртки : Прогрессивная
Метод сжатия : С потерями
Бит/(Пиксели*Кадры) : 0.276
Размер потока : 1,32 Гбайт (91%)
Библиотека кодирования : XviD 73
Аудио
Идентификатор : 1
Формат : AC-3
Формат/Информация : Audio Coding 3
Расширение режима : CM (complete main)
Параметр Endianness формата : Big
Идентификатор кодека : 2000
Продолжительность : 1 ч. 35 м.
Вид битрейта : Постоянный
Битрейт : 192 Кбит/сек
Каналы : 2 канала
Расположение каналов : Front: L R
Частота : 48,0 КГц
Частота кадров : 31,250 кадров/сек (1536 spf)
Метод сжатия : С потерями
Размер потока : 131 Мбайт (9%)
Выравнивание : Разделение по промежуткам
Продолжительность промежутка : 40 мс. (1,00 видеокадр)
Время предзагрузки промежутка : 500 мс.







Релиз от:



   Похожие торренты   Торрент   Размер 
В этой теме нет новых непрочитанных сообщений. Жажда (2013) HDTVRip-AVC от Files-x

27 | 9

1.37 ГБ

В этой теме нет новых непрочитанных сообщений. Жажда (2013) HDTVRip от Шкипер

68 | 3

745.64 МБ

В этой теме нет новых непрочитанных сообщений. Жажда (2013) HDTVRip 720p от MediaClub

15 | 3

2.43 ГБ

В этой теме нет новых непрочитанных сообщений. Жажда (2012) SATRip от Generalfilm

46 | 3

451.59 МБ

В этой теме нет новых непрочитанных сообщений. Жажда (2013) WEB-DL 720p

582 | 17

1.28 ГБ

В этой теме нет новых непрочитанных сообщений. Жажда (2013) WEB-DLRip

282 | 16

1.36 ГБ

В этой теме нет новых непрочитанных сообщений. VA - Хитовая летняя жажда (2013) MP3

160 | 9

687 МБ




Вы не можете начинать темы
Вы не можете отвечать на сообщения
Вы не можете редактировать свои сообщения
Вы не можете удалять свои сообщения
Вы не можете добавлять вложения

Перейти:  
Для Мосгорсуда, Роскомнадзора и рекламодателей: mosgorsud-torrent[собачка]yandex.ru
 Вход
ppkBB3cker v.2 © 2008-2014 @ PPK
[ Time : 0.049s | 15 Queries | GZIP : Off ]

cron