img image001 image001 image001 image001 image001 image001 image001 image001 image001 image001 image001 image001 image001 image001 image001

Planets Sun Sun Sun
Статистика раздачи
Автор: Nickolas3434 | Размер: 1.46 ГБ | Добавлен: 26 апр 2016
Раздают: 10    Качают: 5
Скачать торрент
Скачать торрент
Описание торрента

СообщениеДобавлено: 26 апр 2016 

Страна: СССР
Производство: Киевская киностудия
Жанр: драма, военный
Год выпуска: 1954
Продолжительность: 01:37:48
Перевод: Не требуется
Cубтитры: нет
Оригинальная аудиодорожка: русский
Режиссер: Владимир Браун
В ролях:
Михаил Кузнецов, Анатолий Вербицкий, Людмила Соколова, Борис Смирнов, Нина Крачковская, Виктор Добровольский, Владимир Балашов, Всеволод Тягушев, Игорь Горбачёв, Исай Гуров, Евгений Черни, Григорий Гай, А. Душечкин, Г. Петров, Иван Косых...
Полный список актёров
Описание:
По мотивам романа Л. Зайцева и Г. Скульского "В Далекой гавани".
Только что окончившего академию Андрея Высотина назначают командиром корабля "Державный". Герой вызывает на соревнование Светова, командира другого судна своей флотилии, в жену которого был когда-то влюблен. Фильм о любви, верности, дружбе и испытании настоящих чувств.





Источник: DVD5 R5
Качество видео: DVDRip
Формат видео: AVI
Видео: 688x512 (4:3), 25 fps, XviD ~ 1936 kbps avg, 0.220 bit/pixel
Аудио: 48 kHz, Dolby Digital AC3 2.0, 192 kbps
Раздача от:
Общее
Полное имя : Komandir.korablya.1954.DVDRip_[New-team]_by_AVP_Studio.avi
Формат : AVI
Формат/Информация : Audio Video Interleave
Размер файла : 1,46 Гбайт
Продолжительность : 1 ч. 37 м.
Общий поток : 2137 Кбит/сек
Программа кодирования : VirtualDubMod 1.5.10.3 | www.virtualdub-fr.org || (build 2550/release)
Библиотека кодирования : VirtualDubMod build 2550/release
Видео
Идентификатор : 0
Формат : MPEG-4 Visual
Профиль формата : Advanced Simple@L5
Параметр BVOP формата : 1
Параметр QPel формата : Нет
Параметр GMC формата : Без точки перехода
Параметр матрицы формата : Выборочная
Идентификатор кодека : XVID
Идентификатор кодека/Подсказка : XviD
Продолжительность : 1 ч. 37 м.
Битрейт : 1936 Кбит/сек
Ширина : 688 пикселей
Высота : 512 пикселей
Соотношение сторон : 4:3
Частота кадров : 25,000 кадров/сек
Цветовое пространство : YUV
Субдискретизация насыщенности : 4:2:0
Битовая глубина : 8 бит
Тип развёртки : Прогрессивная
Метод сжатия : С потерями
Бит/(Пиксели*Кадры) : 0.220
Размер потока : 1,32 Гбайт (91%)
Библиотека кодирования : XviD 1.2.1 (UTC 2008-12-04)
Аудио
Идентификатор : 1
Формат : AC-3
Формат/Информация : Audio Coding 3
Расширение режима : CM (complete main)
Параметр Endianness формата : Big
Идентификатор кодека : 2000
Продолжительность : 1 ч. 37 м.
Вид битрейта : Постоянный
Битрейт : 192 Кбит/сек
Каналы : 2 канала
Расположение каналов : Front: L R
Частота : 48,0 КГц
Частота кадров : 31,250 кадров/сек (1536 spf)
Метод сжатия : С потерями
Размер потока : 134 Мбайт (9%)
Выравнивание : Разделение по промежуткам
Продолжительность промежутка : 40 мс. (1,00 видеокадр)
Время предзагрузки промежутка : 500 мс





   Похожие торренты   Торрент   Размер 
В этой теме нет новых непрочитанных сообщений. Командир корабля (1954) DVDRip от New-Team

22 | 3

746.75 МБ

В этой теме нет новых непрочитанных сообщений. Командир корабля (1954) DVDRip-AVC от New-Team

7 | 2

1.46 ГБ

В этой теме нет новых непрочитанных сообщений. Командир корабля (1954) DVDRip от Кинорадиомагия

391 | 22

1.37 ГБ

В этой теме нет новых непрочитанных сообщений. В мирные дни / Командир корабля (1950 - 1954) DVD5

38 | 15

4.37 ГБ

В этой теме нет новых непрочитанных сообщений. Андриеш (1954) DVDRip-AVC от New-Team

5 | 0

744.17 МБ

В этой теме нет новых непрочитанных сообщений. Андриеш (1954) DVDRip от New-Team

3 | 0

744.13 МБ

В этой теме нет новых непрочитанных сообщений. Школа мужества (1954) DVDRip от New-Team

15 | 1

1.09 ГБ




Вы не можете начинать темы
Вы не можете отвечать на сообщения
Вы не можете редактировать свои сообщения
Вы не можете удалять свои сообщения
Вы не можете добавлять вложения

Перейти:  
Для Мосгорсуда, Роскомнадзора и рекламодателей: mosgorsud-torrent[собачка]yandex.ru
 Вход
ppkBB3cker v.2 © 2008-2014 @ PPK
[ Time : 0.038s | 16 Queries | GZIP : Off ]

cron