img image001 image001 image001 image001 image001 image001 image001 image001 image001 image001 image001 image001 image001 image001 image001

Planets Sun Sun Sun
Статистика раздачи
Автор: Nickolas3434 | Размер: 743.8 МБ | Добавлен: 28 апр 2016
Раздают: 4    Качают: 2
Скачать торрент
Скачать торрент
Описание торрента

СообщениеДобавлено: 28 апр 2016 

Страна: СССР
Производство: к/с им. М.Горького
Жанр: драма, история
Год выпуска: 1954
Продолжительность: 01:27:17
Перевод: Не требуется
Cубтитры: нет
Оригинальная аудиодорожка: русский
Режиссер: Юрий Егоров
В ролях:
Николай Крючков, Геннадий Юдин, Михаил Кузнецов, Эльза Леждей, Марк Бернес, Валентин Грачёв, Александра Данилова, Александр Антонов, Анатолий Кубацкий, Александр Пелевин, Георгий Черноволенко, Валентина Телегина, Елена Максимова, Всеволод Тягушев...
Полный список актёров
Описание:
XVIII век, Белое море. Рыбаки уходят на промысел в море. Во время стоянки на необитаемом острове на них нападют пираты и пускают судно на дно. Для их семей они пропали на несколько лет. Фильм основан на реальных событиях.





Источник: DVD5 R5
Качество видео: DVDRip
Формат видео: AVI
Видео: 640x480 (4:3), 25 fps, XviD ~ 1054 kbps avg, 0.137 bit/pixel
Аудио: 48 kHz, MP3 2.0, 128 kbps
Раздача от:
Общее
Полное имя : More.studenoe.1954.DVDRip-745_[New-team]_by_AVP_Studio.avi
Формат : AVI
Формат/Информация : Audio Video Interleave
Размер файла : 744 Мбайт
Продолжительность : 1 ч. 27 м.
Общий поток : 1191 Кбит/сек
Программа кодирования : VirtualDubMod 1.5.10.3 | www.virtualdub-fr.org || (build 2550/release)
Библиотека кодирования : VirtualDubMod build 2550/release
Видео
Идентификатор : 0
Формат : MPEG-4 Visual
Профиль формата : Advanced Simple@L5
Параметр BVOP формата : 1
Параметр QPel формата : Нет
Параметр GMC формата : Без точки перехода
Параметр матрицы формата : Выборочная
Идентификатор кодека : XVID
Идентификатор кодека/Подсказка : XviD
Продолжительность : 1 ч. 27 м.
Битрейт : 1054 Кбит/сек
Ширина : 640 пикселей
Высота : 480 пикселей
Соотношение сторон : 4:3
Частота кадров : 25,000 кадров/сек
Цветовое пространство : YUV
Субдискретизация насыщенности : 4:2:0
Битовая глубина : 8 бит
Тип развёртки : Прогрессивная
Метод сжатия : С потерями
Бит/(Пиксели*Кадры) : 0.137
Размер потока : 658 Мбайт (88%)
Библиотека кодирования : XviD 1.2.1 (UTC 2008-12-04)
Аудио
Идентификатор : 1
Формат : MPEG Audio
Версия формата : Version 1
Профиль формата : Layer 3
Идентификатор кодека : 55
Идентификатор кодека/Подсказка : MP3
Продолжительность : 1 ч. 27 м.
Вид битрейта : Постоянный
Битрейт : 128 Кбит/сек
Каналы : 2 канала
Частота : 48,0 КГц
Метод сжатия : С потерями
Размер потока : 79,9 Мбайт (11%)
Выравнивание : Соединение по промежуткам
Продолжительность промежутка : 40 мс. (1,00 видеокадр)
Время предзагрузки промежутка : 504 мс.
Библиотека кодирования : LAME3.99r
Настройки программы : -m s -V 4 -q 2 -lowpass 17 -b 128





   Похожие торренты   Торрент   Размер 
В этой теме нет новых непрочитанных сообщений. Море студеное (1954) DVDRip от New-Team

34 | 1

1.46 ГБ

В этой теме нет новых непрочитанных сообщений. Море студеное (1954) DVDRip-AVC от New-Team

35 | 6

1.46 ГБ

В этой теме нет новых непрочитанных сообщений. Андриеш (1954) DVDRip-AVC от New-Team

5 | 0

744.17 МБ

В этой теме нет новых непрочитанных сообщений. Андриеш (1954) DVDRip от New-Team

3 | 0

744.13 МБ

В этой теме нет новых непрочитанных сообщений. Командир корабля (1954) DVDRip от New-Team

12 | 5

1.46 ГБ

В этой теме нет новых непрочитанных сообщений. Аттестат зрелости (1954) DVDRip-AVC от New-Team

24 | 1

1.09 ГБ

В этой теме нет новых непрочитанных сообщений. Аттестат зрелости (1954) DVDRip от New-Team

16 | 1

744.04 МБ




Вы не можете начинать темы
Вы не можете отвечать на сообщения
Вы не можете редактировать свои сообщения
Вы не можете удалять свои сообщения
Вы не можете добавлять вложения

Перейти:  
Для Мосгорсуда, Роскомнадзора и рекламодателей: mosgorsud-torrent[собачка]yandex.ru
 Вход
ppkBB3cker v.2 © 2008-2014 @ PPK
[ Time : 0.369s | 16 Queries | GZIP : Off ]

cron