img image001 image001 image001 image001 image001 image001 image001 image001 image001 image001 image001 image001 image001 image001 image001

Planets Sun Sun Sun
Статистика раздачи
Автор: Nickolas3434 | Размер: 678.72 МБ | Добавлен: 29 апр 2016
Раздают: 55    Качают: 2
Скачать торрент
Скачать торрент
Описание торрента

СообщениеДобавлено: 29 апр 2016 


Информация о фильме
Название: Внимание! В городе волшебник!
Год выхода: 1963
Жанр: сказка, детский
Режиссер: Владимир Бычков
В ролях: Михаил Яншин, Михаил Жаров, Ольга Порудолинская, Дмитрий Орлов, Эмилия (Эмма) Трейвас, Александр Орлов, Владимир Поночевный, Тамара Малкова, Саша Веденеев, Юрий Андреев, Эммануил Геллер, Валерий Левенталь, Анна Дубровина, Александр Лебедев, Георгиос Совчис, Владимир Грамматиков, Алексей Барановский
О фильме:
Мальчик читает книжку о сказочном городе, а когда его глаза устают, он отдыхает и размышляет о том, что произойдет, если все люди будут думать только о себе. Ему представляется, что в удивительном городе живет молодой волшебник: хорошим людям он помогает, а плохих - превращает куклы. Но тот из них, кто совершит благородный поступок, вновь становится человеком, но хорошим. Однажды куклы отправляются на поиски лекарства «кукарекуин», которое одно только может помочь больной девочке Тате, и вступают в борьбу с шарлатаном — доктором Краксом. Проигрывая, они просят волшебника превратить Кракса в куклу. Кракс превращается в надувную куклу и лопается от злости, а спасшие Тату куклы становятся настоящими и весьма хорошими детьми...

Производство: СССР / Беларусьфильм, Союзмультфильм
Продолжительность: 00:52:41
Перевод: Не требуется
Файл
Качество: TVRip
Формат: AVI
Видео: XviD, 640x496 (1.29:1), 25.000 fps, 1695 kbps, 0.214 bit/pixel
Аудио: русский, MP3, 1 ch, 48 kHz, 96 kbps
Формат : AVI
Формат/Информация : Audio Video Interleave
Размер файла : 679 Мбайт
Продолжительность : 52 м.
Общий поток : 1801 Кбит/сек
Программа кодирования : VirtualDubMod 1.5.10.2 (build 2542/release)
Библиотека кодирования : VirtualDubMod build 2542/release
Видео
Идентификатор : 0
Формат : MPEG-4 Visual
Профиль формата : Advanced Simple@L5
Параметр BVOP формата : 1
Параметр QPel формата : Нет
Параметр GMC формата : Без точки перехода
Параметр матрицы формата : Default (MPEG)
Идентификатор кодека : XVID
Идентификатор кодека/Подсказка : XviD
Продолжительность : 52 м.
Битрейт : 1695 Кбит/сек
Ширина : 640 пикселей
Высота : 496 пикселей
Соотношение сторон : 1,290
Частота кадров : 25,000 кадров/сек
Цветовое пространство : YUV
Субдискретизация насыщенности : 4:2:0
Битовая глубина : 8 бит
Тип развёртки : Прогрессивная
Метод сжатия : С потерями
Бит/(Пиксели*Кадры) : 0.214
Размер потока : 639 Мбайт (94%)
Библиотека кодирования : XviD 1.2.0SMP (UTC 2006-01-08)
Аудио
Идентификатор : 1
Формат : MPEG Audio
Версия формата : Version 1
Профиль формата : Layer 3
Идентификатор кодека : 55
Идентификатор кодека/Подсказка : MP3
Продолжительность : 52 м.
Вид битрейта : Постоянный
Битрейт : 96,0 Кбит/сек
Каналы : 1 канал
Частота : 48,0 КГц
Метод сжатия : С потерями
Размер потока : 36,2 Мбайт (5%)
Выравнивание : Разделение по промежуткам
Продолжительность промежутка : 40 мс. (1,00 видеокадр)
Время предзагрузки промежутка : 500 мс.



   Похожие торренты   Торрент   Размер 
В этой теме нет новых непрочитанных сообщений. Волков А. - Волшебник Изумрудного города (1963-1984) DJVU

41 | 9

70.01 МБ

В этой теме нет новых непрочитанных сообщений. С точки зрения науки: Внимание Цунами / National Geographic: Tsunami Warning (2005) TVRip

0 | 110

1.2 ГБ

В этой теме нет новых непрочитанных сообщений. Любовь в большом городе 3 [05-06 из 08] (2014) TVRip

91 | 51

1.01 ГБ

В этой теме нет новых непрочитанных сообщений. Любовь в большом городе 3 [01-08 из 08] (2014) TVRip

170 | 164

4.35 ГБ

В этой теме нет новых непрочитанных сообщений. Любовь в большом городе 3 [03-04 из 08] (2014) TVRip

37 | 19

1.01 ГБ

В этой теме нет новых непрочитанных сообщений. Любовь в большом городе 3 [01-02 из 8] (2014) TVRip

75 | 9

1.16 ГБ

В этой теме нет новых непрочитанных сообщений. Дождь в чужом городе (1979) TVRip

116 | 6

1.46 ГБ




Вы не можете начинать темы
Вы не можете отвечать на сообщения
Вы не можете редактировать свои сообщения
Вы не можете удалять свои сообщения
Вы не можете добавлять вложения

Перейти:  
Для Мосгорсуда, Роскомнадзора и рекламодателей: mosgorsud-torrent[собачка]yandex.ru
 Вход
ppkBB3cker v.2 © 2008-2014 @ PPK
[ Time : 0.057s | 14 Queries | GZIP : On ]

Торрент трекер RUTOR.IN, Не можете зайти на rutor.org? Какой новый адрес рутор? Какое зеркало рутор? Не работает rutor.org и зеркала? Тогда наш торрент специально для вас. Rutor.in неофициальное зеркало rutor. В случае если у Вас заблокирован rutor или вдруг Вы не можете на него зайти, то Вы без труда сможете скачать бесплатно и без рекламы последние новинки кино, игр, сериалов и прочего у нас, на Rutor.in. Не нужно использовать прокси, чтобы зайти на рутор, достаточно воспользоваться нашим ресурсом. Все новые фильмы, игры, сериалы, книги и музыка за 2013 и 2014 годы через торрент бесплатно. Скачивайте фильмы в хорошем качестве, игры для пк, xbox, playstation без регистрации. У нас вы найдете новые Зарубежные сериалы и Русские сериалы 2013, 2014, 2015 годов. Оставайтесь с нами, качайте любимые фильмы, игры, сериалы, книги и музыку.