img image001 image001 image001 image001 image001 image001 image001 image001 image001 image001 image001 image001 image001 image001 image001

Planets Sun Sun Sun
Статистика раздачи
Автор: Nickolas3434 | Размер: 1.25 ГБ | Добавлен: 30 апр 2016
Раздают: 70    Качают: 3
Скачать торрент
Скачать торрент
Описание торрента

СообщениеДобавлено: 30 апр 2016 


Информация о фильме
Оригинальное название: Помню – не помню!
Год выпуска: 2016
Жанр: Комедия
Выпущено: Россия, Кинофирма
Режиссер: Василий Ровенский
В ролях: Наталия Медведева (III), Полина Максимова, Константин Крюков, Людмила Артемьева, Анна Ардова, Александр Демидов, Сергей Бадюк, Вадим Демчог, Анна Хилькевич, Дмитрий Хрусталёв
О фильме: Живет себе на свете скромная девушка Алена, работает в библиотеке и мечтает сыграть Джульетту в самодеятельном театре. Она и представить себе не может, что буквально завтра ее жизнь кардинально изменится. Столкнувшись на улице с шикарной блондинкой, она теряет сознание и… приходит в себя в больнице… в чужом теле.

Файл
Качество: WEB-DLRip (AVC)
Видео: MPEG-4 AVC, 1979 Кбит/с, 1024x428, 24 кадр/с
Аудио: AC3, 6 ch, 384 Кбит/с
Размер: 1.25 ГБ
Продолжительность: 01:15:30
Язык: Русский
Озвучивание - (iTunes Russia)
Сохранены оригинальные чаптеры как на исходном WEB-DL.
x264 [info]: frame I:902 Avg QP:15.19 size: 64543
x264 [info]: frame P:31690 Avg QP:18.38 size: 19174
x264 [info]: frame B:81610 Avg QP:20.04 size: 4952
x264 [info]: consecutive B-frames: 3.2% 6.4% 6.1% 72.0% 4.4% 6.4% 0.6% 0.5% 0.1% 0.3%
x264 [info]: mb I I16..4: 8.7% 64.8% 26.4%
x264 [info]: mb P I16..4: 0.5% 8.8% 1.2% P16..4: 32.1% 36.6% 14.3% 2.8% 0.3% skip: 3.5%
x264 [info]: mb B I16..4: 0.1% 0.9% 0.1% B16..8: 30.6% 19.8% 3.4% direct: 5.2% skip:39.9% L0:36.4% L1:46.6% BI:17.0%
x264 [info]: 8x8 transform intra:80.8% inter:50.1%
x264 [info]: direct mvs spatial:97.0% temporal:3.0%
x264 [info]: coded y,uvDC,uvAC intra: 91.4% 79.3% 56.2% inter: 21.1% 17.0% 9.9%
x264 [info]: i16 v,h,dc,p: 19% 10% 12% 58%
x264 [info]: i8 v,h,dc,ddl,ddr,vr,hd,vl,hu: 13% 9% 7% 8% 11% 13% 12% 13% 14%
x264 [info]: i4 v,h,dc,ddl,ddr,vr,hd,vl,hu: 16% 9% 4% 8% 14% 14% 12% 11% 12%
x264 [info]: i8c dc,h,v,p: 39% 25% 20% 15%
x264 [info]: Weighted P-Frames: Y:4.2% UV:1.5%
x264 [info]: ref P L0: 54.5% 11.1% 15.5% 4.9% 3.9% 2.6% 2.4% 1.2% 1.2% 0.9% 0.9% 0.9% 0.1% 0.0%
x264 [info]: ref B L0: 82.3% 9.0% 3.4% 1.6% 1.1% 0.8% 0.6% 0.4% 0.3% 0.2% 0.1%
x264 [info]: ref B L1: 96.1% 3.9%
x264 [info]: kb/s:1873.78

Общее
Уникальный идентификатор : 216558218197126785388395991004392183917 (0xA2EB9880A3FB8F11A592665C113BD86D)
Полное имя : D:ЗагрузкиPomnju.Ne.Pomnju!2016.x264.WEB-DLRip.AVC.ExKinoRay.mkv
Формат : Matroska
Версия формата : Version 2
Размер файла : 1,25 Гбайт
Продолжительность : 1 ч. 15 м.
Общий поток : 2365 Кбит/сек
Название фильма : Помню – не помню!2016.Rip by: ollan
Дата кодирования : UTC 2016-04-28 22:10:27
Программа кодирования : mkvmerge v5.6.0 ('Kenya Kane') built on May 27 2012 16:44:04
Библиотека кодирования : libebml v1.2.3 + libmatroska v1.3.0
Attachements : Cover - Pomnju.Ne.Pomnju!.png
Видео
Идентификатор : 1
Формат : AVC
Формат/Информация : Advanced Video Codec
Профиль формата : High@L4.1
Параметр CABAC формата : Да
Параметр ReFrames формата : 12 кадров
Идентификатор кодека : V_MPEG4/ISO/AVC
Продолжительность : 1 ч. 15 м.
Битрейт : 1979 Кбит/сек
Ширина : 1024 пикселя
Высота : 428 пикселей
Соотношение сторон : 2,40:1
Режим частоты кадров : Постоянный
Частота кадров : 24,000 кадра/сек
Цветовое пространство : YUV
Субдискретизация насыщенности : 4:2:0
Битовая глубина : 8 бит
Тип развёртки : Прогрессивная
Бит/(Пиксели*Кадры) : 0.188
Размер потока : 1,02 Гбайт (82%)
Библиотека кодирования : x264 core 146 r2538 121396c
Настройки программы : cabac=1 / ref=12 / deblock=1:-3:-3 / analyse=0x3:0x133 / me=umh / subme=11 / psy=1 / psy_rd=0.97:0.15 / mixed_ref=1 / me_range=48 / chroma_me=1 / trellis=2 / 8x8dct=1 / cqm=0 / deadzone=21,11 / fast_pskip=0 / chroma_qp_offset=-3 / threads=12 / lookahead_threads=2 / sliced_threads=0 / nr=0 / decimate=0 / interlaced=0 / bluray_compat=0 / constrained_intra=0 / bframes=9 / b_pyramid=2 / b_adapt=2 / b_bias=0 / direct=3 / weightb=1 / open_gop=0 / weightp=2 / keyint=240 / keyint_min=23 / scenecut=40 / intra_refresh=0 / rc_lookahead=40 / rc=2pass / mbtree=0 / bitrate=1979 / ratetol=1.0 / qcomp=0.60 / qpmin=0 / qpmax=69 / qpstep=4 / cplxblur=20.0 / qblur=0.5 / vbv_maxrate=50000 / vbv_bufsize=62500 / nal_hrd=none / filler=0 / ip_ratio=1.40 / pb_ratio=1.30 / aq=1:1.00
Язык : Russian
Default : Да
Forced : Нет
Аудио
Идентификатор : 2
Формат : AC-3
Формат/Информация : Audio Coding 3
Расширение режима : CM (complete main)
Параметр Endianness формата : Big
Идентификатор кодека : A_AC3
Продолжительность : 1 ч. 15 м.
Вид битрейта : Постоянный
Битрейт : 384 Кбит/сек
Каналы : 6 каналов
Расположение каналов : Front: L C R, Side: L R, LFE
Частота : 48,0 КГц
Частота кадров : 31,250 кадров/сек (1536 spf)
Метод сжатия : С потерями
Размер потока : 207 Мбайт (16%)
Заголовок : iTunes Russia
Язык : Russian
Default : Да
Forced : Нет
Меню
00:00:00.000 : ru:Chapter 01
00:05:14.333 : ru:Chapter 02
00:11:59.749 : ru:Chapter 03
00:18:11.499 : ru:Chapter 04
00:23:58.582 : ru:Chapter 05
00:29:02.707 : ru:Chapter 06
00:34:57.665 : ru:Chapter 07
00:40:04.623 : ru:Chapter 08
00:45:29.623 : ru:Chapter 09
00:51:28.456 : ru:Chapter 10
00:56:31.831 : ru:Chapter 11
01:03:10.664 : ru:Chapter 12





Релиз от: Rip by:



   Похожие торренты   Торрент   Размер 
В этой теме нет новых непрочитанных сообщений. Помню – не помню! (2016) WEB-DLRip от Scarabey | iTunes

841 | 20

1.37 ГБ

В этой теме нет новых непрочитанных сообщений. Помню – не помню! (2016) WEB-DLRip-AVC от New-Team | iTunes

173 | 4

745.58 МБ

В этой теме нет новых непрочитанных сообщений. Помню – не помню! (2016) WEB-DLRip | КПК от ImperiaFilm | iTunes

298 | 11

256.8 МБ

В этой теме нет новых непрочитанных сообщений. Помню – не помню! (2016) WEB-DLRip-AVC от New-Team | iTunes

481 | 6

1.37 ГБ

В этой теме нет новых непрочитанных сообщений. Помню – не помню! (2016) WEB-DLRip от Scarabey | iTunes

835 | 33

747.3 МБ

В этой теме нет новых непрочитанных сообщений. Помню – не помню! (2016) WEB-DLRip от MegaPeer | iTunes

226 | 4

741.91 МБ

В этой теме нет новых непрочитанных сообщений. Помню – не помню! (2016) WEB-DLRip | iTunes

8122 | 209

1.37 ГБ




Вы не можете начинать темы
Вы не можете отвечать на сообщения
Вы не можете редактировать свои сообщения
Вы не можете удалять свои сообщения
Вы не можете добавлять вложения

Перейти:  
Для Мосгорсуда, Роскомнадзора и рекламодателей: mosgorsud-torrent[собачка]yandex.ru
 Вход
ppkBB3cker v.2 © 2008-2014 @ PPK
[ Time : 0.035s | 15 Queries | GZIP : Off ]

cron