img image001 image001 image001 image001 image001 image001 image001 image001 image001 image001 image001 image001 image001 image001 image001

Planets Sun Sun Sun
Статистика раздачи
Автор: Nickolas3434 | Размер: 1.09 ГБ | Добавлен: 30 апр 2016
Раздают: 32    Качают: 5
Скачать торрент
Скачать торрент
Описание торрента

СообщениеДобавлено: 30 апр 2016 

Страна: СССР
Производство: Мосфильм
Жанр: драма, приключения, военный
Год выпуска: 1954
Продолжительность: 01:33:39
Перевод: Не требуется
Cубтитры: нет
Оригинальная аудиодорожка: русский
Режиссер: Владимир Басов, Мстислав Корчагин
В ролях:
Леонид Харитонов, Марк Бернес, Владимир Емельянов, Григорий Михайлов, Пётр Чернов, Евгения Мельникова, Роза Макагонова, Михаил Пуговкин, Владимир Горелов, Николай Граббе, Георгий Гумилевский, Вадим Захарченко, Николай Гарин, А. Сергеев...
Полный список актёров
Описание:
В центре фильма судьба провинциального парня, ставшего участником революционных событий и гражданской войны. По мотивам произведений А.Гайдара.





Источник: DVD5 R5
Качество видео: DVDRip
Формат видео: AVI
Видео: 672x496 (4:3), 25 fps, XviD ~ 1463 kbps avg, 0.176 bit/pixel
Аудио: 48 kHz, Dolby Digital AC3 2.0, 192 kbps
Раздача от:
Общее
Полное имя : Shkola.muzhestva.1954.DVDRip_[New-team]_by_AVP_Studio.avi
Формат : AVI
Формат/Информация : Audio Video Interleave
Размер файла : 1,09 Гбайт
Продолжительность : 1 ч. 33 м.
Общий поток : 1665 Кбит/сек
Программа кодирования : VirtualDubMod 1.5.10.3 | www.virtualdub-fr.org || (build 2550/release)
Библиотека кодирования : VirtualDubMod build 2550/release
Видео
Идентификатор : 0
Формат : MPEG-4 Visual
Профиль формата : Advanced Simple@L5
Параметр BVOP формата : 1
Параметр QPel формата : Нет
Параметр GMC формата : Без точки перехода
Параметр матрицы формата : Выборочная
Идентификатор кодека : XVID
Идентификатор кодека/Подсказка : XviD
Продолжительность : 1 ч. 33 м.
Битрейт : 1463 Кбит/сек
Ширина : 672 пикселя
Высота : 496 пикселей
Соотношение сторон : 4:3
Частота кадров : 25,000 кадров/сек
Цветовое пространство : YUV
Субдискретизация насыщенности : 4:2:0
Битовая глубина : 8 бит
Тип развёртки : Прогрессивная
Метод сжатия : С потерями
Бит/(Пиксели*Кадры) : 0.176
Размер потока : 980 Мбайт (88%)
Библиотека кодирования : XviD 1.2.1 (UTC 2008-12-04)
Аудио
Идентификатор : 1
Формат : AC-3
Формат/Информация : Audio Coding 3
Расширение режима : CM (complete main)
Параметр Endianness формата : Big
Идентификатор кодека : 2000
Продолжительность : 1 ч. 33 м.
Вид битрейта : Постоянный
Битрейт : 192 Кбит/сек
Каналы : 2 канала
Расположение каналов : Front: L R
Частота : 48,0 КГц
Частота кадров : 31,250 кадров/сек (1536 spf)
Метод сжатия : С потерями
Размер потока : 129 Мбайт (12%)
Выравнивание : Разделение по промежуткам
Продолжительность промежутка : 40 мс. (1,00 видеокадр)
Время предзагрузки промежутка : 500 мс





   Похожие торренты   Торрент   Размер 
В этой теме нет новых непрочитанных сообщений. Школа мужества (1954) DVDRip от New-Team

17 | 11

744.83 МБ

В этой теме нет новых непрочитанных сообщений. Школа мужества (1954) DVDRip-AVC от New-Team

61 | 6

1.09 ГБ

В этой теме нет новых непрочитанных сообщений. Школа мужества (1954) DVDRip

12 | 149

744.22 МБ

В этой теме нет новых непрочитанных сообщений. Школа строгого режима / Школа-тюрьма / Prison School [01 из 10] (2015) HDTVRip 720p от BTT-TEAM и SOUND-GROUP | L2

3 | 1

511.05 МБ

В этой теме нет новых непрочитанных сообщений. Андриеш (1954) DVDRip от New-Team

10 | 4

744.13 МБ

В этой теме нет новых непрочитанных сообщений. Андриеш (1954) DVDRip-AVC от New-Team

21 | 3

744.17 МБ

В этой теме нет новых непрочитанных сообщений. Большая семья (1954) DVDRip от New-Team

36 | 1

1.46 ГБ




Вы не можете начинать темы
Вы не можете отвечать на сообщения
Вы не можете редактировать свои сообщения
Вы не можете удалять свои сообщения
Вы не можете добавлять вложения

Перейти:  
Для Мосгорсуда, Роскомнадзора и рекламодателей: mosgorsud-torrent[собачка]yandex.ru
 Вход
ppkBB3cker v.2 © 2008-2014 @ PPK
[ Time : 0.035s | 16 Queries | GZIP : Off ]

Торрент трекер RUTOR.IN, Не можете зайти на rutor.org? Какой новый адрес рутор? Какое зеркало рутор? Не работает rutor.org и зеркала? Тогда наш торрент специально для вас. Rutor.in неофициальное зеркало rutor. В случае если у Вас заблокирован rutor или вдруг Вы не можете на него зайти, то Вы без труда сможете скачать бесплатно и без рекламы последние новинки кино, игр, сериалов и прочего у нас, на Rutor.in. Не нужно использовать прокси, чтобы зайти на рутор, достаточно воспользоваться нашим ресурсом. Все новые фильмы, игры, сериалы, книги и музыка за 2013 и 2014 годы через торрент бесплатно. Скачивайте фильмы в хорошем качестве, игры для пк, xbox, playstation без регистрации. У нас вы найдете новые Зарубежные сериалы и Русские сериалы 2013, 2014, 2015 годов. Оставайтесь с нами, качайте любимые фильмы, игры, сериалы, книги и музыку.