img image001 image001 image001 image001 image001 image001 image001 image001 image001 image001 image001 image001 image001 image001 image001

Planets Sun Sun Sun
Статистика раздачи
Автор: Nickolas3434 | Размер: 1.45 ГБ | Добавлен: 30 апр 2016
Раздают: 248    Качают: 3
Скачать торрент
Скачать торрент
Описание торрента

СообщениеДобавлено: 30 апр 2016 

Информация о фильме
Название: Дурак
Год выхода: 2014
Жанр: Драма
Режиссер: Юрий Быков
В ролях: Артём Быстров, Наталья Суркова, Юрий Цурило, Борис Невзоров, Кирилл Полухин, Роман Майоров, Иван Брэд, Александр Коршунов, Ольга Самошина, Дарья Мороз
О фильме:
Никита — молодой парень, работающий сантехником и являющийся одним из лучших специалистов в городе. Однажды его вызывают в общежитие, расположенное на окраине города, в котором произошла авария. Приехав на место, он обнаруживает, что по всему зданию пошла трещина, а это значит, что дом может рухнуть в любую минуту. Понимая, что провести эвакуацию и переселение жильцов, численность которых достигает 800 человек, невозможно без согласования сверху, Никита решает сделать все возможное, чтобы достучаться до чиновников. Однако сделать это оказывается очень непросто, поскольку верхушка города очень глубоко погрязла в коррупции и не желает ничего предпринимать. Но парень не собирается отступать, даже когда его жизни начинает угрожать опасность...

Страна: Россия
Студия: Rock Film Studio
Продолжительность: 02:00:52
Перевод: Не требуется (русский)
Файл
Формат: AVI
Качество: HDRip
Видео: XviD, 720x304, 24 fps, 1329 kbps
Звук: AC3, 6 ch, ~384 kbps
Релиз:
Фильм посвящен памяти режиссера Алексея Балабанова.
Съёмки фильма проходили в Туле и Москве. Для съёмок разрушающегося здания было найдено реальное общежитие на окраине Тулы. Трещины, ползущие по стене, были созданы художниками. Декорация имеет размер восемь метров в ширину и три в высоту, а остальная часть была дорисована компьютером. Внутри помещений на четырёх этажах трещины были настоящими, их, по согласию жильцов, сделала съёмочная группа (после окончания съёмок за счёт создателей картины был сделан небольшой ремонт). Семейные сцены в доме Никитина снимались в обычной московской квартире в Кузьминках. Во время съёмок хозяева квартиры находились в соседней комнате.
Общее
Полное имя :The.Fool.2014.HDRip.1450MB.AC3.6.ch.MegaPeer.avi
Формат : AVI
Формат/Информация : Audio Video Interleave
Размер файла : 1,45 Гбайт
Продолжительность : 2 ч. 0 м.
Общий поток : 1722 Кбит/сек
Программа кодирования : VirtualDubMod 1.5.10.3 | www.virtualdub-fr.org || (build 2550/release)
Библиотека кодирования : VirtualDubMod build 2550/release
Видео
Идентификатор : 0
Формат : MPEG-4 Visual
Профиль формата : Advanced Simple@L5
Параметр BVOP формата : 1
Параметр QPel формата : Нет
Параметр GMC формата : Без точки перехода
Параметр матрицы формата : Выборочная
Идентификатор кодека : XVID
Идентификатор кодека/Подсказка : XviD
Продолжительность : 2 ч. 0 м.
Битрейт : 1329 Кбит/сек
Ширина : 720 пикселей
Высота : 304 пикселя
Соотношение сторон : 2,35:1
Частота кадров : 24,000 кадра/сек
Цветовое пространство : YUV
Субдискретизация насыщенности : 4:2:0
Битовая глубина : 8 бит
Тип развёртки : Прогрессивная
Метод сжатия : С потерями
Бит/(Пиксели*Кадры) : 0.253
Размер потока : 1,12 Гбайт (77%)
Библиотека кодирования : XviD 73
Аудио
Идентификатор : 1
Формат : AC-3
Формат/Информация : Audio Coding 3
Расширение режима : CM (complete main)
Параметр Endianness формата : Big
Идентификатор кодека : 2000
Продолжительность : 2 ч. 0 м.
Вид битрейта : Постоянный
Битрейт : 384 Кбит/сек
Каналы : 6 каналов
Расположение каналов : Front: L C R, Side: L R, LFE
Частота : 48,0 КГц
Частота кадров : 31,250 кадров/сек (1536 spf)
Метод сжатия : С потерями
Размер потока : 332 Мбайт (22%)
Выравнивание : Разделение по промежуткам
Продолжительность промежутка : 42 мс. (1,00 видеокадр)
Время предзагрузки промежутка : 500 мс.



   Похожие торренты   Торрент   Размер 
В этой теме нет новых непрочитанных сообщений. Дурак (2014) HDRip от MegaPeer

103 | 4

1.45 ГБ

В этой теме нет новых непрочитанных сообщений. Дурак (2014) HDRip от Scarabey | Лицензия

239 | 7

746.86 МБ

В этой теме нет новых непрочитанных сообщений. Дурак (2014) HDRip от Scarabey | Лицензия

407 | 11

1.45 ГБ

В этой теме нет новых непрочитанных сообщений. Дурак (2014) Blu-ray 1080p

20 | 11

22.79 ГБ

В этой теме нет новых непрочитанных сообщений. Дурак (2014) WEB-DL 720p | iTunes

11098 | 471

3.58 ГБ

В этой теме нет новых непрочитанных сообщений. Дурак (2014) WEB-DLRip | iTunes

21659 | 1133

1.46 ГБ

В этой теме нет новых непрочитанных сообщений. Дурак (2014) BDRip 720p

67 | 1

6.13 ГБ




Вы не можете начинать темы
Вы не можете отвечать на сообщения
Вы не можете редактировать свои сообщения
Вы не можете удалять свои сообщения
Вы не можете добавлять вложения

Перейти:  
Для Мосгорсуда, Роскомнадзора и рекламодателей: mosgorsud-torrent[собачка]yandex.ru
 Вход
ppkBB3cker v.2 © 2008-2014 @ PPK
[ Time : 0.041s | 16 Queries | GZIP : Off ]

Торрент трекер RUTOR.IN, Не можете зайти на rutor.org? Какой новый адрес рутор? Какое зеркало рутор? Не работает rutor.org и зеркала? Тогда наш торрент специально для вас. Rutor.in неофициальное зеркало rutor. В случае если у Вас заблокирован rutor или вдруг Вы не можете на него зайти, то Вы без труда сможете скачать бесплатно и без рекламы последние новинки кино, игр, сериалов и прочего у нас, на Rutor.in. Не нужно использовать прокси, чтобы зайти на рутор, достаточно воспользоваться нашим ресурсом. Все новые фильмы, игры, сериалы, книги и музыка за 2013 и 2014 годы через торрент бесплатно. Скачивайте фильмы в хорошем качестве, игры для пк, xbox, playstation без регистрации. У нас вы найдете новые Зарубежные сериалы и Русские сериалы 2013, 2014, 2015 годов. Оставайтесь с нами, качайте любимые фильмы, игры, сериалы, книги и музыку.
cron