img image001 image001 image001 image001 image001 image001 image001 image001 image001 image001 image001 image001 image001 image001 image001

Planets Sun Sun Sun
Статистика раздачи
Автор: Nickolas3434 | Размер: 1.46 ГБ | Добавлен: 30 апр 2016
Раздают: 635    Качают: 32
Скачать торрент
Скачать торрент
Описание торрента

СообщениеДобавлено: 30 апр 2016 

Коробка
«Твой двор. Твои правила»


Страна: Россия
Жанр: драма, спорт, комедия
Год выпуска: 2015
Продолжительность: 01:36:09
Перевод: Не требуется (русский)
Cубтитры: нет
Режиссер: Эдуард Бордуков
В ролях: Сергей Романович, Сергей Подольный, Кирилл Дегтярь, Георгий Соскин, Степан Тавризян, Сослан Засеев, Руслан Нигматулин, Ульви Вердиев, Стася Милославская, Евгения Дмитриева, Олег Васильков, Кай Гетц
Описание:
«Костя, Серж, Мел и Танцор - лучшие друзья. Они молоды и увлечены уличным футболом. Самый крутой из них Костя. Его девушка Настя считает, что он должен попробовать себя в профессиональной футбольной команде, но для Кости уличный футбол - это его жизнь, а футбольная коробка - второй дом, где играют только друзья, только свои.
Однажды команда Кости сталкивается на коробке с чужой компанией во главе с Дамиром, профессиональным футболистом. Не желая делить коробку, они устраивают жесткий бескомпромиссный турнир, в который постепенно втягиваются все жители района. Ставки растут, и на кону уже не только коробка. На кону дружба и любовь. И пути назад нет. Теперь это не просто игра, это война!»

Релиз:
Автор рипа: Stalker oK
Сэмпл
Качество видео: WEB-DLRip-AVC [RUTOR / WEB-DL / 1080p]
Формат видео: MKV
Видео кодек: AVC
Аудио кодек: AC3
Видео: 1785 Кбит/сек, 864*486 (16:9), в 25,000 кадров/сек, AVC
Аудио: русский, 384 Кбит/сек, 48 КГц, 16 бит, 5.1, AC3 [iTunes]
Навигация по главам: есть

Общее
Уникальный идентификатор : 216275162927983370340462063266789479045 (0xA2B514CCDDF7258D82F03329B3CE5285)
Полное имя : M:1WEB-DLKorobkaKorobka.2015.WEB-DLRip-AVC.1.45Gb.stalkerok.new-team.mkv
Формат : Matroska
Версия формата : Version 4 / Version 2
Размер файла : 1,46 Гбайт
Продолжительность : 1 ч. 36 м.
Общий поток : 2169 Кбит/сек
Название фильма : Коробка (2015) (New-Team) (Rip by Stalker oK)
Дата кодирования : UTC 2016-04-29 13:00:11
Программа кодирования : mkvmerge v8.6.1 ('Flying') 64bit
Библиотека кодирования : libebml v1.3.3 + libmatroska v1.4.4
Видео
Идентификатор : 1
Формат : AVC
Формат/Информация : Advanced Video Codec
Профиль формата : High@L4.1
Параметр CABAC формата : Да
Параметр ReFrames формата : 14 кадров
Идентификатор кодека : V_MPEG4/ISO/AVC
Продолжительность : 1 ч. 36 м.
Битрейт : 1785 Кбит/сек
Ширина : 864 пикселя
Высота : 486 пикселей
Соотношение сторон : 16:9
Режим частоты кадров : Постоянный
Частота кадров : 25,000 кадров/сек
Цветовое пространство : YUV
Субдискретизация насыщенности : 4:2:0
Битовая глубина : 8 бит
Тип развёртки : Прогрессивная
Бит/(Пиксели*Кадры) : 0.170
Размер потока : 1,20 Гбайт (82%)
Заголовок : Коробка (2015) (New-Team) (Rip by Stalker oK)
Библиотека кодирования : x264 core 148 r2665kMod a01e339
Настройки программы : cabac=1 / ref=14 / deblock=1:-3:-2 / analyse=0x3:0x133 / me=umh / subme=11 / psy=1 / fade_compensate=0.00 / psy_rd=1.00:0.05 / mixed_ref=1 / me_range=48 / chroma_me=1 / trellis=2 / 8x8dct=1 / cqm=0 / deadzone=21,11 / fast_pskip=0 / chroma_qp_offset=-3 / threads=12 / lookahead_threads=3 / sliced_threads=0 / nr=0 / decimate=0 / interlaced=0 / bluray_compat=0 / constrained_intra=0 / fgo=0 / bframes=15 / b_pyramid=2 / b_adapt=2 / b_bias=0 / direct=3 / weightb=1 / open_gop=0 / weightp=2 / keyint=250 / keyint_min=25 / scenecut=40 / intra_refresh=0 / rc_lookahead=60 / rc=2pass / mbtree=0 / bitrate=1785 / ratetol=1.0 / qcomp=0.70 / qpmin=0 / qpmax=69 / qpstep=4 / cplxblur=20.0 / qblur=0.5 / vbv_maxrate=50000 / vbv_bufsize=62500 / nal_hrd=none / filler=0 / ip_ratio=1.40 / pb_ratio=1.30 / aq=3:0.90
Default : Да
Forced : Нет
Аудио
Идентификатор : 2
Формат : AC-3
Формат/Информация : Audio Coding 3
Расширение режима : CM (complete main)
Параметр Endianness формата : Big
Идентификатор кодека : A_AC3
Продолжительность : 1 ч. 36 м.
Вид битрейта : Постоянный
Битрейт : 384 Кбит/сек
Каналы : 6 каналов
Расположение каналов : Front: L C R, Side: L R, LFE
Частота : 48,0 КГц
Частота кадров : 31,250 кадров/сек (1536 spf)
Метод сжатия : С потерями
Размер потока : 264 Мбайт (18%)
Язык : Russian
Default : Да
Forced : Нет
Меню
00:00:00.000 : en:Глава 1
00:06:07.840 : en:Глава 2
00:11:58.520 : en:Глава 3
00:17:39.400 : en:Глава 4
00:23:36.160 : en:Глава 5
00:29:22.680 : en:Глава 6
00:34:44.080 : en:Глава 7
00:40:24.840 : en:Глава 8
00:45:47.160 : en:Глава 9
00:51:21.680 : en:Глава 10
00:57:08.520 : en:Глава 11
01:03:54.120 : en:Глава 12
01:09:03.720 : en:Глава 13
01:14:08.200 : en:Глава 14
01:19:34.400 : en:Глава 15
01:24:53.840 : en:Глава 16
01:32:22.840 : en:Глава 17





   Похожие торренты   Торрент   Размер 
В этой теме нет новых непрочитанных сообщений. Коробка (2015) WEB-DLRip-AVC от New-Team | iTunes

168 | 6

746.07 МБ

В этой теме нет новых непрочитанных сообщений. Коробка (2015) WEB-DLRip | iTunes

14847 | 265

1.46 ГБ

В этой теме нет новых непрочитанных сообщений. Коробка (2015) WEB-DLRip-AVC | iTunes

238 | 24

700.42 МБ

В этой теме нет новых непрочитанных сообщений. Коробка (2015) WEB-DLRip-AVC от Scarabey | iTunes

390 | 30

1.74 ГБ

В этой теме нет новых непрочитанных сообщений. Коробка (2015) WEB-DLRip от Scarabey | iTunes

238 | 25

743.18 МБ

В этой теме нет новых непрочитанных сообщений. Коробка (2015) WEB-DLRip от Scarabey | iTunes

2166 | 113

1.45 ГБ

В этой теме нет новых непрочитанных сообщений. Коробка (2015) WEB-DLRip от MegaPeer | iTunes

790 | 49

746.67 МБ




Вы не можете начинать темы
Вы не можете отвечать на сообщения
Вы не можете редактировать свои сообщения
Вы не можете удалять свои сообщения
Вы не можете добавлять вложения

Перейти:  
Для Мосгорсуда, Роскомнадзора и рекламодателей: mosgorsud-torrent[собачка]yandex.ru
 Вход
ppkBB3cker v.2 © 2008-2014 @ PPK
[ Time : 0.028s | 15 Queries | GZIP : Off ]

Торрент трекер RUTOR.IN, Не можете зайти на rutor.org? Какой новый адрес рутор? Какое зеркало рутор? Не работает rutor.org и зеркала? Тогда наш торрент специально для вас. Rutor.in неофициальное зеркало rutor. В случае если у Вас заблокирован rutor или вдруг Вы не можете на него зайти, то Вы без труда сможете скачать бесплатно и без рекламы последние новинки кино, игр, сериалов и прочего у нас, на Rutor.in. Не нужно использовать прокси, чтобы зайти на рутор, достаточно воспользоваться нашим ресурсом. Все новые фильмы, игры, сериалы, книги и музыка за 2013 и 2014 годы через торрент бесплатно. Скачивайте фильмы в хорошем качестве, игры для пк, xbox, playstation без регистрации. У нас вы найдете новые Зарубежные сериалы и Русские сериалы 2013, 2014, 2015 годов. Оставайтесь с нами, качайте любимые фильмы, игры, сериалы, книги и музыку.