img image001 image001 image001 image001 image001 image001 image001 image001 image001 image001 image001 image001 image001 image001 image001

Planets Sun Sun Sun
Статистика раздачи
Автор: Nickolas3434 | Размер: 1.09 ГБ | Добавлен: 01 май 2016
Раздают: 2    Качают: 0
Скачать торрент
Скачать торрент
Описание торрента

СообщениеДобавлено: 01 май 2016 

Страна: СССР
Производство: Ленфильм
Жанр: комедия, спорт
Год выпуска: 1954
Продолжительность: 01:18:07
Перевод: Не требуется
Cубтитры: нет
Оригинальная аудиодорожка: русский
Режиссер: Семен Тимошенко
В ролях:
Георгий Вицин, Всеволод Кузнецов, Елена Тяпкина, Павел Кадочников, Татьяна Конюхова, Валентина Ушакова, Марк Бернес, Константин Адашевский, Владимир Белокуров, Павел Поль, Александр Жуков (II), Эльвира (Эльва) Луценко...
Полный список актёров
Описание:
Заводская команда "Синих Стрел" выходит в финал и отправляется в Сухуми на теплоходе для встречи с "Вымпелом", считающимся фаворитом. Подающий надежды запасной игрок Вася Веснушкин влюблен в гимнастку, опасаясь, что та предпочитает зазнавшегося старшего брата, лучшего игрока той же команды. На борту находится также актер кино Светланов, переодетый стариком Дедушкиным для лучшего проникновения в образ будущей роли. Сотрудники института геронтологии принимают старика за профессора из Москвы Бабушкина...





Источник: DVD5 R5
Качество видео: DVDRip
Формат видео: AVI
Видео: 688x512 (4:3), 25 fps, XviD ~ 1537 kbps avg, 0.174 bit/pixel
Аудио: 48 kHz, Dolby Digital AC3 5.1, 448 kbps
Раздача от:
Общее
Полное имя : Zapasnoy.igrok.1954.DVDRip_[New-team]_by_AVP_Studio.avi
Формат : AVI
Формат/Информация : Audio Video Interleave
Размер файла : 1,09 Гбайт
Продолжительность : 1 ч. 18 м.
Общий поток : 1994 Кбит/сек
Программа кодирования : VirtualDubMod 1.5.10.3 | www.virtualdub-fr.org || (build 2550/release)
Библиотека кодирования : VirtualDubMod build 2550/release
Видео
Идентификатор : 0
Формат : MPEG-4 Visual
Профиль формата : Advanced Simple@L5
Параметр BVOP формата : 1
Параметр QPel формата : Нет
Параметр GMC формата : Без точки перехода
Параметр матрицы формата : Выборочная
Идентификатор кодека : XVID
Идентификатор кодека/Подсказка : XviD
Продолжительность : 1 ч. 18 м.
Битрейт : 1537 Кбит/сек
Ширина : 688 пикселей
Высота : 512 пикселей
Соотношение сторон : 4:3
Частота кадров : 25,000 кадров/сек
Цветовое пространство : YUV
Субдискретизация насыщенности : 4:2:0
Битовая глубина : 8 бит
Тип развёртки : Прогрессивная
Метод сжатия : С потерями
Бит/(Пиксели*Кадры) : 0.174
Размер потока : 859 Мбайт (77%)
Библиотека кодирования : XviD 1.2.1 (UTC 2008-12-04)
Аудио
Идентификатор : 1
Формат : AC-3
Формат/Информация : Audio Coding 3
Расширение режима : CM (complete main)
Параметр Endianness формата : Big
Идентификатор кодека : 2000
Продолжительность : 1 ч. 18 м.
Вид битрейта : Постоянный
Битрейт : 448 Кбит/сек
Каналы : 6 каналов
Расположение каналов : Front: L C R, Side: L R, LFE
Частота : 48,0 КГц
Частота кадров : 31,250 кадров/сек (1536 spf)
Метод сжатия : С потерями
Размер потока : 250 Мбайт (22%)
Выравнивание : Разделение по промежуткам
Продолжительность промежутка : 40 мс. (1,00 видеокадр)
Время предзагрузки промежутка : 500 мс





   Похожие торренты   Торрент   Размер 
В этой теме нет новых непрочитанных сообщений. Запасной игрок (1954) DVDRip-AVC от New-Team

10 | 1

1.09 ГБ

В этой теме нет новых непрочитанных сообщений. Запасной игрок (1954) DVDRip от New-Team

6 | 0

744.2 МБ

В этой теме нет новых непрочитанных сообщений. Запасной игрок (1954) DVDRip

103 | 9

1.43 ГБ

В этой теме нет новых непрочитанных сообщений. Запасной игрок (1954) DVDRip-AVC

67 | 15

1.59 ГБ

В этой теме нет новых непрочитанных сообщений. Запасной игрок (1954) DVDRip от GeneralFilm

72 | 10

1.46 ГБ

В этой теме нет новых непрочитанных сообщений. Запасной игрок (1954) DVDRip-AVC от ExKinoRay

26 | 4

1.91 ГБ

В этой теме нет новых непрочитанных сообщений. Запасной игрок (1954) DVD5

17 | 9

4.27 ГБ




Вы не можете начинать темы
Вы не можете отвечать на сообщения
Вы не можете редактировать свои сообщения
Вы не можете удалять свои сообщения
Вы не можете добавлять вложения

Перейти:  
Для Мосгорсуда, Роскомнадзора и рекламодателей: mosgorsud-torrent[собачка]yandex.ru
 Вход
ppkBB3cker v.2 © 2008-2014 @ PPK
[ Time : 0.052s | 16 Queries | GZIP : Off ]

cron