img image001 image001 image001 image001 image001 image001 image001 image001 image001 image001 image001 image001 image001 image001 image001

Planets Sun Sun Sun
Статистика раздачи
Автор: Nickolas3434 | Размер: 1.74 ГБ | Добавлен: 02 май 2016
Раздают: 390    Качают: 30
Скачать торрент
Скачать торрент
Описание торрента

СообщениеДобавлено: 02 май 2016 


Год выпуска: 2015
Страна: Россия
Жанр: драма, спорт, комедия
Продолжительность: 01:36:09
Перевод: Не требуется [iTunes]
Субтитры: нет
Режиссёр: Эдуард Бордуков
В ролях: Сергей Романович, Сергей Подольный, Кирилл Дегтярь, Георгий Соскин, Степан Тавризян, Сослан Засеев, Руслан Нигматулин, Ульви Вердиев, Стася Милославская, Евгения Дмитриева
Описание: Костя, Серж, Мел и Танцор — лучшие друзья. Они молоды и увлечены уличным футболом. Самый крутой из них Костя. Его девушка Настя считает, что он должен попробовать себя в профессиональной футбольной команде, но для Кости уличный футбол — это его жизнь, а футбольная коробка — второй дом, где играют только друзья, только свои.
Однажды команда Кости сталкивается на коробке с чужой компанией во главе с Дамиром, профессиональным футболистом. Не желая делить коробку, они устраивают жесткий бескомпромиссный турнир, в который постепенно втягиваются все жители района. Ставки растут, и на кону уже не только коробка. На кону дружба и любовь. И пути назад нет. Теперь это не просто игра, это война!
Качество видео: WEB-DLRip-AVC
Формат видео: MKV
Видео: 1024х576, 25 fps, AVC ~2200 kbps avg
Аудио: 48 kHz, AC3 Dolby Digital, 3/2 (L,C,R,l,r) + LFE ch, ~384 kbps
Релиз от:




Korobka_2016_AVC_WEB-DLRip_[scarabey.org].mkv
Format : Matroska
Format version : Version 2
File size : 1.74 GiB
Duration : 1h 36mn
Overall bit rate : 2 585 Kbps
Encoded date : UTC 2016-04-29 14:51:11
Writing application : mkvmerge v6.1.0 ('Old Devil') built on Mar 4 2013 09:10:42
Writing library : libebml v1.3.0 + libmatroska v1.4.0
Video
ID : 1
Format : AVC
Format/Info : Advanced Video Codec
Format profile : High@L4.1
Format settings, CABAC : Yes
Format settings, ReFrames : 10 frames
Codec ID : V_MPEG4/ISO/AVC
Duration : 1h 36mn
Bit rate : 2 200 Kbps
Width : 1 024 pixels
Height : 576 pixels
Display aspect ratio : 16:9
Frame rate mode : Constant
Frame rate : 25.000 fps
Color space : YUV
Chroma subsampling : 4:2:0
Bit depth : 8 bits
Scan type : Progressive
Bits/(Pixel*Frame) : 0.149
Stream size : 1.44 GiB (83%)
Writing library : x264 core 148 r2597 e86f3a1
Encoding settings : cabac=1 / ref=10 / deblock=1:-3:-2 / analyse=0x3:0x113 / me=umh / subme=10 / psy=1 / psy_rd=1.00:0.00 / mixed_ref=1 / me_range=32 / chroma_me=1 / trellis=2 / 8x8dct=1 / cqm=0 / deadzone=21,11 / fast_pskip=1 / chroma_qp_offset=-2 / threads=12 / lookahead_threads=2 / sliced_threads=0 / nr=0 / decimate=0 / interlaced=0 / bluray_compat=0 / constrained_intra=0 / bframes=8 / b_pyramid=2 / b_adapt=2 / b_bias=0 / direct=3 / weightb=1 / open_gop=0 / weightp=2 / keyint=240 / keyint_min=24 / scenecut=40 / intra_refresh=0 / rc_lookahead=40 / rc=2pass / mbtree=1 / bitrate=2200 / ratetol=1.0 / qcomp=0.60 / qpmin=0 / qpmax=69 / qpstep=4 / cplxblur=20.0 / qblur=0.5 / ip_ratio=1.40 / aq=1:1.00
Default : Yes
Forced : No
Audio
ID : 2
Format : AC-3
Format/Info : Audio Coding 3
Mode extension : CM (complete main)
Format settings, Endianness : Big
Codec ID : A_AC3
Duration : 1h 36mn
Bit rate mode : Constant
Bit rate : 384 Kbps
Channel(s) : 6 channels
Channel positions : Front: L C R, Side: L R, LFE
Sampling rate : 48.0 KHz
Bit depth : 16 bits
Compression mode : Lossy
Stream size : 264 MiB (15%)
Default : Yes
Forced : No



   Похожие торренты   Торрент   Размер 
В этой теме нет новых непрочитанных сообщений. Коробка (2015) WEB-DLRip от Scarabey | iTunes

238 | 25

743.18 МБ

В этой теме нет новых непрочитанных сообщений. Коробка (2015) WEB-DLRip от Scarabey | iTunes

2166 | 113

1.45 ГБ

В этой теме нет новых непрочитанных сообщений. Коробка (2015) WEB-DLRip-AVC | iTunes

238 | 24

700.42 МБ

В этой теме нет новых непрочитанных сообщений. Коробка (2015) WEB-DLRip | iTunes

14847 | 265

1.46 ГБ

В этой теме нет новых непрочитанных сообщений. Коробка (2015) WEB-DLRip-AVC от New-Team | iTunes

168 | 6

746.07 МБ

В этой теме нет новых непрочитанных сообщений. Коробка (2015) WEB-DLRip от MegaPeer | iTunes

790 | 49

746.67 МБ

В этой теме нет новых непрочитанных сообщений. Коробка (2015) WEB-DLRip-AVC от New-Team | iTunes

635 | 32

1.46 ГБ




Вы не можете начинать темы
Вы не можете отвечать на сообщения
Вы не можете редактировать свои сообщения
Вы не можете удалять свои сообщения
Вы не можете добавлять вложения

Перейти:  
Для Мосгорсуда, Роскомнадзора и рекламодателей: mosgorsud-torrent[собачка]yandex.ru
 Вход
ppkBB3cker v.2 © 2008-2014 @ PPK
[ Time : 0.030s | 14 Queries | GZIP : On ]

Торрент трекер RUTOR.IN, Не можете зайти на rutor.org? Какой новый адрес рутор? Какое зеркало рутор? Не работает rutor.org и зеркала? Тогда наш торрент специально для вас. Rutor.in неофициальное зеркало rutor. В случае если у Вас заблокирован rutor или вдруг Вы не можете на него зайти, то Вы без труда сможете скачать бесплатно и без рекламы последние новинки кино, игр, сериалов и прочего у нас, на Rutor.in. Не нужно использовать прокси, чтобы зайти на рутор, достаточно воспользоваться нашим ресурсом. Все новые фильмы, игры, сериалы, книги и музыка за 2013 и 2014 годы через торрент бесплатно. Скачивайте фильмы в хорошем качестве, игры для пк, xbox, playstation без регистрации. У нас вы найдете новые Зарубежные сериалы и Русские сериалы 2013, 2014, 2015 годов. Оставайтесь с нами, качайте любимые фильмы, игры, сериалы, книги и музыку.