img image001 image001 image001 image001 image001 image001 image001 image001 image001 image001 image001 image001 image001 image001 image001

Planets Sun Sun Sun
Статистика раздачи
Автор: Nickolas3434 | Размер: 3.82 ГБ | Добавлен: 05 май 2016
Раздают: 15    Качают: 2
Скачать торрент
Скачать торрент
Описание торрента

СообщениеДобавлено: 05 май 2016 


Информация о фильме
Название: Анна Павлова
Год выхода: 1986
Жанр: Драма, биография
Режиссер: Эмиль Лотяну
В ролях: Галина Беляева, Лина Булдакова, Сергей Шакуров, Всеволод Ларионов, Джеймс Фокс, Жак Дебари, Георге Димитриу, Пётр Гусев, Джон Морей, Светлана Тома, Наталья Фатеева, Валентина Решетникова, Мартин Скорсезе, Брюс Форсайт, Ион Шкуря, Леонид Марков, Анатолий Ромашин, Игорь Дмитриев, Тийт Хярм, Григоре Григориу, Александр Звенигорский, Михаил Крапивин, Игорь Скляр, Пол Стокер, Рой Киннир, Валентина Ганиба
О фильме:
История жизни легендарной русской балерины: её становления, триумфов и скитаний, самоотверженного служения искусству и личной драмы. Первая мировая война застала Анну Павлову в Германии. Затем последовали концерты в США, Европе, мировая слава и напрасные мечты о возвращении... Анна Павлова умерла в Гааге, в возрасте 49-ти лет.
Телеверсия фильма состоит из пяти новелл: «Улица Росси», «Неумирающий лебедь», «Тюльпаны и одиночество», «Сны о России», «Прикосновение к закату». Фильм вначале был выпущен в кинопрокат в двух сериях (1983), затем в 1986 году вышел пятисерийный телевариант.
Страна: СССР, Великобритания, ГДР, Куба, Франция
Продолжительность: 5 х ~ 00:55:00
Перевод: не требуется
Файл
Кодек: x264
Качество: SATRip-AVC
Видео: MPEG-4, 1700 Кбит/с, 712x572@759x572
Звук: AC3, 2 ch, 192-256 Кбит/с

Общее
Уникальный идентификатор : 196311095591857438411513414697118147695 (0x93B024492D249B5BBDC8665A587D246F)
Полное имя : R:МОИ РИПЫАнна Павлова_1986-SATRip-AVCПавлова-1.mkv
Формат : Matroska
Версия формата : Version 2
Размер файла : 746 Мбайт
Продолжительность : 53 м.
Общий поток : 1958 Кбит/сек
Дата кодирования : UTC 2016-04-14 04:46:54
Программа кодирования : mkvmerge v5.8.0 ('No Sleep / Pillow') built on Sep 2 2012 15:37:04
Библиотека кодирования : libebml v1.2.3 + libmatroska v1.3.0
Видео
Идентификатор : 1
Формат : AVC
Формат/Информация : Advanced Video Codec
Профиль формата : High@L4.1
Параметр CABAC формата : Да
Параметр ReFrames формата : 13 кадров
Идентификатор кодека : V_MPEG4/ISO/AVC
Продолжительность : 53 м.
Битрейт : 1700 Кбит/сек
Ширина : 712 пикселей
Высота : 572 пикселя
Соотношение сторон : 4:3
Соотношение сторон в оригинале : 4:3
Режим частоты кадров : Постоянный
Частота кадров : 25,000 кадров/сек
Цветовое пространство : YUV
Субдискретизация насыщенности : 4:2:0
Битовая глубина : 8 бит
Тип развёртки : Прогрессивная
Бит/(Пиксели*Кадры) : 0.167
Размер потока : 633 Мбайт (85%)
Библиотека кодирования : x264 core 148 r2638 7599210
Настройки программы : cabac=1 / ref=13 / deblock=1:-2:-2 / analyse=0x3:0x133 / me=umh / subme=10 / psy=1 / psy_rd=1.05:0.05 / mixed_ref=1 / me_range=32 / chroma_me=1 / trellis=2 / 8x8dct=1 / cqm=0 / deadzone=21,11 / fast_pskip=0 / chroma_qp_offset=-3 / threads=12 / lookahead_threads=3 / sliced_threads=0 / nr=0 / decimate=0 / interlaced=0 / bluray_compat=0 / constrained_intra=0 / bframes=10 / b_pyramid=2 / b_adapt=2 / b_bias=0 / direct=3 / weightb=1 / open_gop=0 / weightp=2 / keyint=250 / keyint_min=25 / scenecut=40 / intra_refresh=0 / rc=2pass / mbtree=0 / bitrate=1700 / ratetol=1.0 / qcomp=0.63 / qpmin=0 / qpmax=39 / qpstep=4 / cplxblur=20.0 / qblur=0.5 / ip_ratio=1.40 / pb_ratio=1.30 / aq=1:1.00
Язык : English
Default : Да
Forced : Нет
Цветовой диапазон : Limited
Основные цвета : BT.601 PAL
Характеристики трансфера : BT.470 System B, BT.470 System G
Коэффициенты матрицы : BT.601
Аудио
Идентификатор : 2
Формат : AC-3
Формат/Информация : Audio Coding 3
Расширение режима : CM (complete main)
Параметр Endianness формата : Big
Идентификатор кодека : A_AC3
Продолжительность : 53 м.
Вид битрейта : Постоянный
Битрейт : 256 Кбит/сек
Каналы : 2 канала
Расположение каналов : Front: L R
Частота : 48,0 КГц
Метод сжатия : С потерями
Задержка видео : 9 мс.
Размер потока : 97,5 Мбайт (13%)
Язык : Russian
Default : Да
Forced : Нет

Релиз от:
Автор релиза:



   Похожие торренты   Торрент   Размер 
В этой теме нет новых непрочитанных сообщений. Анна Павлова [2 из 2] (1983) DVDRip

95 | 18

2.05 ГБ

В этой теме нет новых непрочитанных сообщений. Собака Павлова (2005) SATRip

4 | 2

700 МБ

В этой теме нет новых непрочитанных сообщений. Небанальная кухня Павлова [01-70] (2014-2015) SATRip

4 | 6

21.49 ГБ

В этой теме нет новых непрочитанных сообщений. Батальонъ [01-02 из 04] (2015) HDTVRip-AVC от ExKinoRay | Расширенная Телеверсия

267 | 14

2.27 ГБ

В этой теме нет новых непрочитанных сообщений. Батальонъ [01-02 из 04] (2015) HDTVRip-AVC от ExKinoRay | Расширенная Телеверсия

177 | 23

4.77 ГБ

В этой теме нет новых непрочитанных сообщений. Год теленка (1986) SATRip-AVC от ExKinoRay

27 | 15

1.4 ГБ

В этой теме нет новых непрочитанных сообщений. Лицом к лицу (1986) SATRip-AVC от ExKinoRay

156 | 45

1.84 ГБ




Вы не можете начинать темы
Вы не можете отвечать на сообщения
Вы не можете редактировать свои сообщения
Вы не можете удалять свои сообщения
Вы не можете добавлять вложения

Перейти:  
Для Мосгорсуда, Роскомнадзора и рекламодателей: mosgorsud-torrent[собачка]yandex.ru
 Вход
ppkBB3cker v.2 © 2008-2014 @ PPK
[ Time : 4.026s | 15 Queries | GZIP : Off ]

Торрент трекер RUTOR.IN, Не можете зайти на rutor.org? Какой новый адрес рутор? Какое зеркало рутор? Не работает rutor.org и зеркала? Тогда наш торрент специально для вас. Rutor.in неофициальное зеркало rutor. В случае если у Вас заблокирован rutor или вдруг Вы не можете на него зайти, то Вы без труда сможете скачать бесплатно и без рекламы последние новинки кино, игр, сериалов и прочего у нас, на Rutor.in. Не нужно использовать прокси, чтобы зайти на рутор, достаточно воспользоваться нашим ресурсом. Все новые фильмы, игры, сериалы, книги и музыка за 2013 и 2014 годы через торрент бесплатно. Скачивайте фильмы в хорошем качестве, игры для пк, xbox, playstation без регистрации. У нас вы найдете новые Зарубежные сериалы и Русские сериалы 2013, 2014, 2015 годов. Оставайтесь с нами, качайте любимые фильмы, игры, сериалы, книги и музыку.