img image001 image001 image001 image001 image001 image001 image001 image001 image001 image001 image001 image001 image001 image001 image001

Planets Sun Sun Sun
Статистика раздачи
Автор: Nickolas3434 | Размер: 3.29 ГБ | Добавлен: 05 май 2016
Раздают: 65    Качают: 9
Скачать торрент
Скачать торрент
Описание торрента

СообщениеДобавлено: 05 май 2016 


Информация о фильме
Название: Обыкновенное чудо
Год выхода: 1978
Жанр: Фэнтези, музыкальный, семейный
Режиссер: Марк Захаров
В ролях: Олег Янковский, Ирина Купченко, Евгений Леонов, Евгения Симонова, Александр Абдулов, Екатерина Васильева, Андрей Миронов, Леонид Серебренников, Юрий Соломин, Андрей Леонов, Ерванд Арзуманян, Всеволод Ларионов, Нина Пушкова, Валентина Волкова, Владимир Долинский
О фильме:
...Жил-был волшебник, который, на беду свою, был бессмертен. На беду - потому что имел мужество полюбить смертную женщину и жениться на ней."Мне суждено пережить тебя и затосковать навеки..." И вот, чтобы развлечь жену, он придумывает для сказку - волшебник превращает в прекрасного юношу обыкновенного лесного медведя и ставит при этом такое условие: если юноша хочет снова стать медведем и вернуться в родной лес, его должна поцеловать принцесса...Казалось бы, всё просто, но принцесса и Медведь полюбили друг друга... "Слава храбрецам, которые осмеливаются любить, зная, что всему этому придет конец. Слава безумцам, которые живут так, как будто они бессмертны. Любите, любите друг друга, да и всех нас заодно, не остывайте, не отступайте - и вы будете так счастливы, что это просто чудо!.."
Страна: СССР, Мосфильм
Продолжительность: 01:08:45 + 01:08:53
Перевод: не требуется
Файл
Кодек: x264
Качество: DVDRip-AVC
Видео: MPEG-4 AVC, 2750, 716x574@ 763x574
Звук: AC3, 6 ch, 448 Кбит/с, AC3, 1 ch, 224 Кбит/с

raw [info]: 716x574p 16:15 @ 25/1 fps (cfr)
x264 [info]: using SAR=16/15
x264 [info]: using cpu capabilities: MMX2 SSE2Fast SSSE3 SSE4.2 AVX
x264 [info]: profile High, level 4.1
x264 [info]: frame I:514 Avg QP:17.97 size: 81024
x264 [info]: frame P:24584 Avg QP:21.35 size: 30104
x264 [info]: frame B:78051 Avg QP:23.03 size: 8155
===============================================================================================================
Общее
Уникальный идентификатор : 207261849539425632897725746295438485411 (0x9BED2E23ED5F8D489BB836213A0EA7A3)
Полное имя : R:МОИ РИПЫОбыкновенное чудо_1978-DVDRip-AVCЧудо-1.mkv
Формат : Matroska
Версия формата : Version 2
Размер файла : 1,64 Гбайт
Продолжительность : 1 ч. 8 м.
Общий поток : 3424 Кбит/сек
Дата кодирования : UTC 2016-04-21 20:21:33
Программа кодирования : mkvmerge v5.8.0 ('No Sleep / Pillow') built on Sep 2 2012 15:37:04
Библиотека кодирования : libebml v1.2.3 + libmatroska v1.3.0
Видео
Идентификатор : 1
Формат : AVC
Формат/Информация : Advanced Video Codec
Профиль формата : High@L4.1
Параметр CABAC формата : Да
Параметр ReFrames формата : 14 кадров
Идентификатор кодека : V_MPEG4/ISO/AVC
Продолжительность : 1 ч. 8 м.
Битрейт : 2750 Кбит/сек
Ширина : 716 пикселей
Высота : 574 пикселя
Соотношение сторон : 4:3
Соотношение сторон в оригинале : 4:3
Режим частоты кадров : Постоянный
Частота кадров : 25,000 кадров/сек
Цветовое пространство : YUV
Субдискретизация насыщенности : 4:2:0
Битовая глубина : 8 бит
Тип развёртки : Прогрессивная
Бит/(Пиксели*Кадры) : 0.268
Размер потока : 1,29 Гбайт (78%)
Библиотека кодирования : x264 core 148 r2638 7599210
Настройки программы : cabac=1 / ref=14 / deblock=1:-2:-2 / analyse=0x3:0x133 / me=umh / subme=10 / psy=1 / psy_rd=1.05:0.15 / mixed_ref=1 / me_range=32 / chroma_me=1 / trellis=2 / 8x8dct=1 / cqm=0 / deadzone=21,11 / fast_pskip=0 / chroma_qp_offset=-3 / threads=12 / lookahead_threads=2 / sliced_threads=0 / nr=0 / decimate=0 / interlaced=0 / bluray_compat=0 / constrained_intra=0 / bframes=9 / b_pyramid=2 / b_adapt=2 / b_bias=0 / direct=3 / weightb=1 / open_gop=0 / weightp=2 / keyint=250 / keyint_min=25 / scenecut=40 / intra_refresh=0 / rc=2pass / mbtree=0 / bitrate=2750 / ratetol=1.0 / qcomp=0.63 / qpmin=0 / qpmax=39 / qpstep=4 / cplxblur=20.0 / qblur=0.5 / ip_ratio=1.40 / pb_ratio=1.30 / aq=1:1.00
Язык : English
Default : Да
Forced : Нет
Цветовой диапазон : Limited
Основные цвета : BT.601 PAL
Характеристики трансфера : BT.470 System B, BT.470 System G
Коэффициенты матрицы : BT.601
Аудио #1
Идентификатор : 2
Формат : AC-3
Формат/Информация : Audio Coding 3
Расширение режима : CM (complete main)
Параметр Endianness формата : Big
Идентификатор кодека : A_AC3
Продолжительность : 1 ч. 8 м.
Вид битрейта : Постоянный
Битрейт : 448 Кбит/сек
Каналы : 6 каналов
Расположение каналов : Front: L C R, Side: L R, LFE
Частота : 48,0 КГц
Метод сжатия : С потерями
Размер потока : 220 Мбайт (13%)
Язык : Russian
Default : Да
Forced : Нет
Аудио #2
Идентификатор : 3
Формат : AC-3
Формат/Информация : Audio Coding 3
Расширение режима : CM (complete main)
Параметр Endianness формата : Big
Идентификатор кодека : A_AC3
Продолжительность : 1 ч. 8 м.
Вид битрейта : Постоянный
Битрейт : 224 Кбит/сек
Каналы : 1 канал
Расположение каналов : Front: C
Частота : 48,0 КГц
Метод сжатия : С потерями
Размер потока : 110 Мбайт (7%)
Язык : Russian
Default : Нет
Forced : Нет
Меню
00:00:00.000 : ru:Chapter 1
00:05:49.800 : ru:Chapter 2
00:12:01.200 : ru:Chapter 3
00:15:51.600 : ru:Chapter 4
00:22:54.600 : ru:Chapter 5
00:29:44.400 : ru:Chapter 6
00:32:40.800 : ru:Chapter 7
00:34:38.400 : ru:Chapter 8
00:45:54.000 : ru:Chapter 9
00:50:07.200 : ru:Chapter 10
00:53:40.800 : ru:Chapter 11
01:05:15.600 : ru:Chapter 12

Релиз от:
Автор релиза:



   Похожие торренты   Торрент   Размер 
В этой теме нет новых непрочитанных сообщений. Обыкновенное чудо (1978) DVDRip

849 | 33

2.74 ГБ

В этой теме нет новых непрочитанных сообщений. Обыкновенное чудо (1978) DVDRip

12 | 6

698.71 МБ

В этой теме нет новых непрочитанных сообщений. Обыкновенное чудо (1978) DVDRip-AVC

67 | 4

2.08 ГБ

В этой теме нет новых непрочитанных сообщений. Обыкновенное чудо (1978) DVDRip

171 | 7

2.18 ГБ

В этой теме нет новых непрочитанных сообщений. Обыкновенное чудо (1978) DVDRip от New-Team

238 | 24

1.45 ГБ

В этой теме нет новых непрочитанных сообщений. Обыкновенное чудо (1978) DVDRip-AVC от New-Team

86 | 10

2.19 ГБ

В этой теме нет новых непрочитанных сообщений. Обыкновенное чудо (1978) DVDRip от R.G. Mega Best

5 | 3

1.57 ГБ




Вы не можете начинать темы
Вы не можете отвечать на сообщения
Вы не можете редактировать свои сообщения
Вы не можете удалять свои сообщения
Вы не можете добавлять вложения

Перейти:  
Для Мосгорсуда, Роскомнадзора и рекламодателей: mosgorsud-torrent[собачка]yandex.ru
 Вход
ppkBB3cker v.2 © 2008-2014 @ PPK
[ Time : 0.041s | 15 Queries | GZIP : Off ]

Торрент трекер RUTOR.IN, Не можете зайти на rutor.org? Какой новый адрес рутор? Какое зеркало рутор? Не работает rutor.org и зеркала? Тогда наш торрент специально для вас. Rutor.in неофициальное зеркало rutor. В случае если у Вас заблокирован rutor или вдруг Вы не можете на него зайти, то Вы без труда сможете скачать бесплатно и без рекламы последние новинки кино, игр, сериалов и прочего у нас, на Rutor.in. Не нужно использовать прокси, чтобы зайти на рутор, достаточно воспользоваться нашим ресурсом. Все новые фильмы, игры, сериалы, книги и музыка за 2013 и 2014 годы через торрент бесплатно. Скачивайте фильмы в хорошем качестве, игры для пк, xbox, playstation без регистрации. У нас вы найдете новые Зарубежные сериалы и Русские сериалы 2013, 2014, 2015 годов. Оставайтесь с нами, качайте любимые фильмы, игры, сериалы, книги и музыку.
cron