img image001 image001 image001 image001 image001 image001 image001 image001 image001 image001 image001 image001 image001 image001 image001

Planets Sun Sun Sun
Статистика раздачи
Автор: Nickolas3434 | Размер: 1.3 ГБ | Добавлен: 04 май 2016
Раздают: 121    Качают: 3
Скачать торрент
Скачать торрент
Описание торрента

СообщениеДобавлено: 04 май 2016 


Информация о фильме
Название: Облако-рай
Год выхода: 1991
Жанр: Трагикомедия
Режиссер: Николай Досталь
В ролях: Андрей Жигалов, Сергей Баталов, Ирина Розанова, Алла Клюка, Анна Овсянникова, Лев Борисов, Владимир Толоконников, Юрий Колобков, Вера Ивлева, Александр Числов, Евгений Титов, Зинаида Воркуль, Борис Каморзин, Михаил Мезенцев, Денис Дмитриев, Юрий Попов
О фильме:
Кого-то язык довел до Киева, а простого паренька Колю он отправил "к другу" аж на Дальний Восток! Ведь пауза в беседе с приятелем слишком затянулась. И теперь Николаю предстоит срочно решить: действительно ему "че-то по снабжению предлагают" - и отправиться на самый край земли; или признаться, что единственные друзья сидят с ним на этой кухне, а Единственная живет в соседнем подъезде. Времени все меньше...
Страна: СССР, Filmstudio 12A, Мосфильм
Продолжительность: 01:16:18
Перевод: не требуется
Файл
Кодек: x264
Качество: DVDRip-AVC
Видео: MPEG-4, 1950 Кбит/с, 692x568@775x568
Звук: AC3, 2 ch, 192 Кбит/с

Общее
Уникальный идентификатор : 201102188079887015732940771592509506641 (0x974ADF62170B1F3EAE9262C9869EC451)
Полное имя : D:Облако Рай_1990-DVDRip-AVC.mkv
Формат : Matroska
Версия формата : Version 2
Размер файла : 1,30 Гбайт
Продолжительность : 1 ч. 16 м.
Общий поток : 2437 Кбит/сек
Дата кодирования : UTC 2016-04-24 10:58:04
Программа кодирования : mkvmerge v5.8.0 ('No Sleep / Pillow') built on Sep 2 2012 15:37:04
Библиотека кодирования : libebml v1.2.3 + libmatroska v1.3.0
Видео
Идентификатор : 1
Формат : AVC
Формат/Информация : Advanced Video Codec
Профиль формата : High@L4.1
Параметр CABAC формата : Да
Параметр ReFrames формата : 15 кадров
Идентификатор кодека : V_MPEG4/ISO/AVC
Продолжительность : 1 ч. 16 м.
Битрейт : 1950 Кбит/сек
Ширина : 692 пикселя
Высота : 568 пикселей
Соотношение сторон : 4:3
Соотношение сторон в оригинале : 4:3
Режим частоты кадров : Постоянный
Частота кадров : 25,000 кадров/сек
Цветовое пространство : YUV
Субдискретизация насыщенности : 4:2:0
Битовая глубина : 8 бит
Тип развёртки : Прогрессивная
Бит/(Пиксели*Кадры) : 0.198
Размер потока : 1,04 Гбайт (80%)
Библиотека кодирования : x264 core 148 r2638 7599210
Настройки программы : cabac=1 / ref=15 / deblock=1:-2:-2 / analyse=0x3:0x133 / me=umh / subme=10 / psy=1 / psy_rd=1.05:0.15 / mixed_ref=1 / me_range=32 / chroma_me=1 / trellis=2 / 8x8dct=1 / cqm=0 / deadzone=21,11 / fast_pskip=0 / chroma_qp_offset=-3 / threads=12 / lookahead_threads=2 / sliced_threads=0 / nr=0 / decimate=0 / interlaced=0 / bluray_compat=0 / constrained_intra=0 / bframes=8 / b_pyramid=2 / b_adapt=2 / b_bias=0 / direct=3 / weightb=1 / open_gop=0 / weightp=2 / keyint=250 / keyint_min=25 / scenecut=40 / intra_refresh=0 / rc=2pass / mbtree=0 / bitrate=1950 / ratetol=1.0 / qcomp=0.63 / qpmin=0 / qpmax=39 / qpstep=4 / cplxblur=20.0 / qblur=0.5 / ip_ratio=1.40 / pb_ratio=1.30 / aq=1:1.00
Язык : English
Default : Да
Forced : Нет
Цветовой диапазон : Limited
Основные цвета : BT.601 PAL
Характеристики трансфера : BT.470 System B, BT.470 System G
Коэффициенты матрицы : BT.601
Аудио
Идентификатор : 2
Формат : AC-3
Формат/Информация : Audio Coding 3
Расширение режима : CM (complete main)
Параметр Endianness формата : Big
Идентификатор кодека : A_AC3
Продолжительность : 1 ч. 16 м.
Вид битрейта : Постоянный
Битрейт : 448 Кбит/сек
Каналы : 6 каналов
Расположение каналов : Front: L C R, Side: L R, LFE
Частота : 48,0 КГц
Метод сжатия : С потерями
Размер потока : 245 Мбайт (18%)
Язык : Russian
Default : Да
Forced : Нет

Релиз от:
Автор релиза:



   Похожие торренты   Торрент   Размер 
В этой теме нет новых непрочитанных сообщений. Облако-рай (1991) DVDRip от Alekxandr48

121 | 6

700.11 МБ

В этой теме нет новых непрочитанных сообщений. Облако - рай / Коля - перекати поле (1991-2005) DVDRip

74 | 19

2.74 ГБ

В этой теме нет новых непрочитанных сообщений. Облако-рай (1991) DVD5

575 | 4

4.15 ГБ

В этой теме нет новых непрочитанных сообщений. Облако-рай (1990) DVDRip

249 | 19

1.36 ГБ

В этой теме нет новых непрочитанных сообщений. Лоскутик и облако (1977) DVDRip

70 | 3

739.6 МБ

В этой теме нет новых непрочитанных сообщений. Облако / Die Wolke (2006) DVDRip

34 | 9

1.36 ГБ

В этой теме нет новых непрочитанных сообщений. Капризное облако / Tian bian yi duo yun (2005) DVDRip | P

134 | 11

2.05 ГБ




Вы не можете начинать темы
Вы не можете отвечать на сообщения
Вы не можете редактировать свои сообщения
Вы не можете удалять свои сообщения
Вы не можете добавлять вложения

Перейти:  
Для Мосгорсуда, Роскомнадзора и рекламодателей: mosgorsud-torrent[собачка]yandex.ru
 Вход
ppkBB3cker v.2 © 2008-2014 @ PPK
[ Time : 0.037s | 16 Queries | GZIP : Off ]

Торрент трекер RUTOR.IN, Не можете зайти на rutor.org? Какой новый адрес рутор? Какое зеркало рутор? Не работает rutor.org и зеркала? Тогда наш торрент специально для вас. Rutor.in неофициальное зеркало rutor. В случае если у Вас заблокирован rutor или вдруг Вы не можете на него зайти, то Вы без труда сможете скачать бесплатно и без рекламы последние новинки кино, игр, сериалов и прочего у нас, на Rutor.in. Не нужно использовать прокси, чтобы зайти на рутор, достаточно воспользоваться нашим ресурсом. Все новые фильмы, игры, сериалы, книги и музыка за 2013 и 2014 годы через торрент бесплатно. Скачивайте фильмы в хорошем качестве, игры для пк, xbox, playstation без регистрации. У нас вы найдете новые Зарубежные сериалы и Русские сериалы 2013, 2014, 2015 годов. Оставайтесь с нами, качайте любимые фильмы, игры, сериалы, книги и музыку.
cron