img image001 image001 image001 image001 image001 image001 image001 image001 image001 image001 image001 image001 image001 image001 image001

Planets Sun Sun Sun
Статистика раздачи
Автор: Nickolas3434 | Размер: 2.8 ГБ | Добавлен: 04 май 2016
Раздают: 11    Качают: 1
Скачать торрент
Скачать торрент
Описание торрента

СообщениеДобавлено: 04 май 2016 


Информация о фильме
Название: Криминальный талант
Год выхода: 1988
Жанр: Детектив, криминал, драма
Режиссер: 1988
В ролях: Алексей Жарков, Александра Захарова, Игорь Нефёдов, Владимир Симонов, Владимир Коренев, Владислав Демченко, Людмила Давыдова (II), Алла Будницкая, Юрий Дубровин, Анна Назарьева, Евгений Ганелин, Елена Борзунова, Юрий Демич, Янислав Левинзон, Виктор Павловский, Елена Попова, Юрий Волович, Алёна Голейзовская, Олег Школьник, Анна Твеленева, Юлия Яковлева, Олег Филимонов
О фильме:
В городе происходит ряд ограблений, совершенных по одной и той же схеме: очаровательная блондинка встречается в ресторане с подвыпившими богатыми мужчинами, подсыпает им снотворное и грабит. По подозрению в совершении этих преступлений милиция задерживает работницу суконной фабрики Александру Рукояткину. И начинается психологический поединок между подозреваемой и следователем прокуратуры Сергеем Рябининым...
Страна: СССР, Гостелерадио, Одесская киностудия
Продолжительность: 2 x ~ 01:05:50
Перевод: не требуется
Файл
Кодек: x264
Качество: DVDRip-AVC
Видео: MPEG-4, ~ 2200 Кбит/с, 712x572@768x572
Звук: AC3, 6 ch, 448 Кбит/с

Общее
Уникальный идентификатор : 207812118714981317171901556169580154724 (0x9C5728815DC8C098B0AE30AF41CF0F64)
Полное имя : R:МОИ РИПЫКриминальный талант_1988-DVDRip-AVCТалант-1.mkv
Формат : Matroska
Версия формата : Version 2
Размер файла : 1,20 Гбайт
Продолжительность : 1 ч. 5 м.
Общий поток : 2601 Кбит/сек
Дата кодирования : UTC 2016-04-28 08:49:04
Программа кодирования : mkvmerge v5.8.0 ('No Sleep / Pillow') built on Sep 2 2012 15:37:04
Библиотека кодирования : libebml v1.2.3 + libmatroska v1.3.0
Видео
Идентификатор : 1
Формат : AVC
Формат/Информация : Advanced Video Codec
Профиль формата : High@L4.1
Параметр CABAC формата : Да
Параметр ReFrames формата : 15 кадров
Идентификатор кодека : V_MPEG4/ISO/AVC
Продолжительность : 1 ч. 5 м.
Битрейт : 2150 Кбит/сек
Ширина : 712 пикселей
Высота : 572 пикселя
Соотношение сторон : 4:3
Режим частоты кадров : Постоянный
Частота кадров : 25,000 кадров/сек
Цветовое пространство : YUV
Субдискретизация насыщенности : 4:2:0
Битовая глубина : 8 бит
Тип развёртки : Прогрессивная
Бит/(Пиксели*Кадры) : 0.211
Размер потока : 989 Мбайт (81%)
Библиотека кодирования : x264 core 148 r2638 7599210
Настройки программы : cabac=1 / ref=15 / deblock=1:-2:-2 / analyse=0x3:0x133 / me=umh / subme=10 / psy=1 / psy_rd=1.05:0.15 / mixed_ref=1 / me_range=32 / chroma_me=1 / trellis=2 / 8x8dct=1 / cqm=0 / deadzone=21,11 / fast_pskip=0 / chroma_qp_offset=-3 / threads=12 / lookahead_threads=3 / sliced_threads=0 / nr=0 / decimate=0 / interlaced=0 / bluray_compat=0 / constrained_intra=0 / bframes=10 / b_pyramid=2 / b_adapt=2 / b_bias=0 / direct=3 / weightb=1 / open_gop=0 / weightp=2 / keyint=250 / keyint_min=25 / scenecut=40 / intra_refresh=0 / rc=2pass / mbtree=0 / bitrate=2150 / ratetol=1.0 / qcomp=0.63 / qpmin=0 / qpmax=39 / qpstep=4 / cplxblur=20.0 / qblur=0.5 / ip_ratio=1.25 / pb_ratio=1.30 / aq=1:1.00
Язык : English
Default : Да
Forced : Нет
Цветовой диапазон : Limited
Основные цвета : BT.601 PAL
Характеристики трансфера : BT.470 System B, BT.470 System G
Коэффициенты матрицы : BT.601
Аудио
Идентификатор : 2
Формат : AC-3
Формат/Информация : Audio Coding 3
Расширение режима : CM (complete main)
Параметр Endianness формата : Big
Идентификатор кодека : A_AC3
Продолжительность : 1 ч. 5 м.
Вид битрейта : Постоянный
Битрейт : 448 Кбит/сек
Каналы : 6 каналов
Расположение каналов : Front: L C R, Side: L R, LFE
Частота : 48,0 КГц
Метод сжатия : С потерями
Размер потока : 211 Мбайт (17%)
Язык : Russian
Default : Да
Forced : Нет

Релиз от:
Автор релиза:



   Похожие торренты   Торрент   Размер 
В этой теме нет новых непрочитанных сообщений. Криминальный талант (1988) DVDRip

74 | 7

2.93 ГБ

В этой теме нет новых непрочитанных сообщений. Криминальный Талант (1988) DVDRip-AVC от R.G.Mega Best

40 | 9

2.36 ГБ

В этой теме нет новых непрочитанных сообщений. Криминальный квартет (1989) DVDRip-AVC от ExKinoRay

59 | 26

1.44 ГБ

В этой теме нет новых непрочитанных сообщений. Криминальный квартет (1989) DVDRip

67 | 8

1.46 ГБ

В этой теме нет новых непрочитанных сообщений. Криминальный квартет (1989) DVDRip - Generalfilm

83 | 6

1.46 ГБ

В этой теме нет новых непрочитанных сообщений. Талант и поклонники (1978) DVDRip от MediaClub | КПК

9 | 7

43.31 МБ

В этой теме нет новых непрочитанных сообщений. Криминальный квартет (1989) DVDRip от GeneralFilm l Реставрация

21 | 2

744.99 МБ




Вы не можете начинать темы
Вы не можете отвечать на сообщения
Вы не можете редактировать свои сообщения
Вы не можете удалять свои сообщения
Вы не можете добавлять вложения

Перейти:  
Для Мосгорсуда, Роскомнадзора и рекламодателей: mosgorsud-torrent[собачка]yandex.ru
 Вход
ppkBB3cker v.2 © 2008-2014 @ PPK
[ Time : 0.028s | 15 Queries | GZIP : Off ]

Торрент трекер RUTOR.IN, Не можете зайти на rutor.org? Какой новый адрес рутор? Какое зеркало рутор? Не работает rutor.org и зеркала? Тогда наш торрент специально для вас. Rutor.in неофициальное зеркало rutor. В случае если у Вас заблокирован rutor или вдруг Вы не можете на него зайти, то Вы без труда сможете скачать бесплатно и без рекламы последние новинки кино, игр, сериалов и прочего у нас, на Rutor.in. Не нужно использовать прокси, чтобы зайти на рутор, достаточно воспользоваться нашим ресурсом. Все новые фильмы, игры, сериалы, книги и музыка за 2013 и 2014 годы через торрент бесплатно. Скачивайте фильмы в хорошем качестве, игры для пк, xbox, playstation без регистрации. У нас вы найдете новые Зарубежные сериалы и Русские сериалы 2013, 2014, 2015 годов. Оставайтесь с нами, качайте любимые фильмы, игры, сериалы, книги и музыку.
cron