img image001 image001 image001 image001 image001 image001 image001 image001 image001 image001 image001 image001 image001 image001 image001

Planets Sun Sun Sun
Статистика раздачи
Автор: Nickolas3434 | Размер: 1.47 ГБ | Добавлен: 05 май 2016
Раздают: 27    Качают: 1
Скачать торрент
Скачать торрент
Описание торрента

СообщениеДобавлено: 05 май 2016 


Информация о фильме
Название: С любимыми не расставайтесь
Год выхода: 1979
Жанр: Мелодрама
Режиссер: Павел Арсенов
В ролях: Ирина Алфёрова, Александр Абдулов, Руфина Нифонтова, Клара Лучко, Инга Будкевич, Евгений Евстигнеев, Валентина Грушина, Леонид Куравлёв, Лариса Лужина, Любовь Мышева, Юрий Назаров, Сергей Никоненко, Валерий Носик, Вера Орлова, Вера Петрова
О фильме:
Молодожены разводятся. С обидой, разочарованием, ревностью. Идет дотошное разбирательство в суде. На их глазах происходят процедуры разводов, иной раз драматические, иной раз потешные. Причины этих разрывов разнообразны и причудливы, как это бывает в жизни. Они записаны документально и потому, пожалуй, выразительней, нежели можно было бы сочинить. Кончается же эта история такой жаждой снова соединить свои жизни, какой не было у героев прежде, когда они вступали в брак. И теперь потребность в личной независимости и гордость оказываются несущественными.
Страна: СССР, Киностудия им. М. Горького
Продолжительность: 01:12:16
Перевод: не требуется
Файл
Кодек: x264
Качество: DVDRip-AVC
Видео: MPEG-4 AVC, 2452 Кбит/с, 700x572@746x572
Звук: AC3, 6 ch, 448 Кбит/с

raw [info]: 700x572p 16:15 @ 25/1 fps (cfr)
x264 [info]: using SAR=16/15
x264 [info]: using cpu capabilities: MMX2 SSE2Fast SSSE3 SSE4.2 AVX
x264 [info]: profile High, level 4.1
x264 [info]: frame I:550 Avg QP:14.20 size: 87047
x264 [info]: frame P:39061 Avg QP:18.08 size: 25013
x264 [info]: frame B:69272 Avg QP:20.40 size: 4475
============================================================================================
Общее
Уникальный идентификатор : 204975883663516222608659746660975935525 (0x9A34EB522A197CC8A38CC7E271788025)
Полное имя : D:C любимыми не расставайтесь_1979-DVDRip-AVC.mkv
Формат : Matroska
Версия формата : Version 2
Размер файла : 1,47 Гбайт
Продолжительность : 1 ч. 12 м.
Общий поток : 2902 Кбит/сек
Дата кодирования : UTC 2016-04-18 20:30:25
Программа кодирования : mkvmerge v5.8.0 ('No Sleep / Pillow') built on Sep 2 2012 15:37:04
Библиотека кодирования : libebml v1.2.3 + libmatroska v1.3.0
Видео
Идентификатор : 1
Формат : AVC
Формат/Информация : Advanced Video Codec
Профиль формата : High@L4.1
Параметр CABAC формата : Да
Параметр ReFrames формата : 14 кадров
Идентификатор кодека : V_MPEG4/ISO/AVC
Продолжительность : 1 ч. 12 м.
Битрейт : 2452 Кбит/сек
Ширина : 700 пикселей
Высота : 572 пикселя
Соотношение сторон : 4:3
Соотношение сторон в оригинале : 4:3
Режим частоты кадров : Постоянный
Частота кадров : 25,000 кадров/сек
Цветовое пространство : YUV
Субдискретизация насыщенности : 4:2:0
Битовая глубина : 8 бит
Тип развёртки : Прогрессивная
Бит/(Пиксели*Кадры) : 0.245
Размер потока : 1,21 Гбайт (83%)
Библиотека кодирования : x264 core 148 r2638 7599210
Настройки программы : cabac=1 / ref=14 / deblock=1:-2:-2 / analyse=0x3:0x133 / me=umh / subme=10 / psy=1 / psy_rd=1.05:0.00 / mixed_ref=1 / me_range=32 / chroma_me=1 / trellis=2 / 8x8dct=1 / cqm=0 / deadzone=21,11 / fast_pskip=0 / chroma_qp_offset=-2 / threads=12 / lookahead_threads=2 / sliced_threads=0 / nr=0 / decimate=0 / interlaced=0 / bluray_compat=0 / constrained_intra=0 / bframes=9 / b_pyramid=2 / b_adapt=2 / b_bias=0 / direct=3 / weightb=1 / open_gop=0 / weightp=2 / keyint=250 / keyint_min=25 / scenecut=40 / intra_refresh=0 / rc=2pass / mbtree=0 / bitrate=2452 / ratetol=1.0 / qcomp=0.63 / qpmin=0 / qpmax=39 / qpstep=4 / cplxblur=20.0 / qblur=0.5 / ip_ratio=1.40 / pb_ratio=1.30 / aq=1:0.90
Язык : English
Default : Да
Forced : Нет
Цветовой диапазон : Limited
Основные цвета : BT.601 PAL
Характеристики трансфера : BT.470 System B, BT.470 System G
Коэффициенты матрицы : BT.601
Аудио
Идентификатор : 2
Формат : AC-3
Формат/Информация : Audio Coding 3
Расширение режима : ME (music and effects)
Параметр Endianness формата : Big
Идентификатор кодека : A_AC3
Продолжительность : 1 ч. 12 м.
Вид битрейта : Постоянный
Битрейт : 448 Кбит/сек
Каналы : 6 каналов
Расположение каналов : Front: L C R, Side: L R, LFE
Частота : 48,0 КГц
Метод сжатия : С потерями
Размер потока : 233 Мбайт (15%)
Язык : Russian
Default : Да
Forced : Нет
Меню
00:00:00.000 : ru:Chapter 1
00:00:00.480 : ru:Chapter 2
00:00:00.960 : ru:Chapter 3
00:00:01.440 : ru:Chapter 4
00:00:02.880 : ru:Chapter 5
00:17:05.680 : ru:Chapter 6
00:24:42.840 : ru:Chapter 7
00:43:26.960 : ru:Chapter 8
00:47:59.480 : ru:Chapter 9
00:55:40.800 : ru:Chapter 10
01:06:15.480 : ru:Chapter 11
01:12:32.760 : ru:Chapter 12
01:12:33.240 : ru:Chapter 13
01:12:33.720 : ru:Chapter 14
01:12:34.200 : ru:Chapter 15
01:12:34.680 : ru:Chapter 16
01:12:35.160 : ru:Chapter 17

Релиз от:
Автор релиза:



   Похожие торренты   Торрент   Размер 
В этой теме нет новых непрочитанных сообщений. С любимыми не расставайтесь (1979) DVDRip

812 | 15

1.45 ГБ

В этой теме нет новых непрочитанных сообщений. Маша и медведь: С любимыми не расставайтесь [61] (2016) WEB-DL 720p от ExKinoRay

77 | 0

221.91 МБ

В этой теме нет новых непрочитанных сообщений. Маша и медведь: С любимыми не расставайтесь [61] (2016) WEB-DL 1080p от ExKinoRay

87 | 0

274.78 МБ

В этой теме нет новых непрочитанных сообщений. Маша и медведь: С любимыми не расставайтесь [61] (2016) WEB-DLRip от ExKinoRay

41 | 0

112.9 МБ

В этой теме нет новых непрочитанных сообщений. Цена измены / С любимыми не расставайтесь / Yeh Lamhe Judaai Ke (2004) DVDRip

26 | 9

2.04 ГБ

В этой теме нет новых непрочитанных сообщений. Маша и медведь: С любимыми не расставайтесь [61] (2016) WEB-DLRip от GeneralFilm

49 | 0

86.8 МБ

В этой теме нет новых непрочитанных сообщений. Маша и медведь: С любимыми не расставайтесь [61] (2016) WEB-DL 720p от GeneralFilm

71 | 0

108.29 МБ




Вы не можете начинать темы
Вы не можете отвечать на сообщения
Вы не можете редактировать свои сообщения
Вы не можете удалять свои сообщения
Вы не можете добавлять вложения

Перейти:  
Для Мосгорсуда, Роскомнадзора и рекламодателей: mosgorsud-torrent[собачка]yandex.ru
 Вход
ppkBB3cker v.2 © 2008-2014 @ PPK
[ Time : 0.042s | 15 Queries | GZIP : Off ]

Торрент трекер RUTOR.IN, Не можете зайти на rutor.org? Какой новый адрес рутор? Какое зеркало рутор? Не работает rutor.org и зеркала? Тогда наш торрент специально для вас. Rutor.in неофициальное зеркало rutor. В случае если у Вас заблокирован rutor или вдруг Вы не можете на него зайти, то Вы без труда сможете скачать бесплатно и без рекламы последние новинки кино, игр, сериалов и прочего у нас, на Rutor.in. Не нужно использовать прокси, чтобы зайти на рутор, достаточно воспользоваться нашим ресурсом. Все новые фильмы, игры, сериалы, книги и музыка за 2013 и 2014 годы через торрент бесплатно. Скачивайте фильмы в хорошем качестве, игры для пк, xbox, playstation без регистрации. У нас вы найдете новые Зарубежные сериалы и Русские сериалы 2013, 2014, 2015 годов. Оставайтесь с нами, качайте любимые фильмы, игры, сериалы, книги и музыку.
cron