img image001 image001 image001 image001 image001 image001 image001 image001 image001 image001 image001 image001 image001 image001 image001

Planets Sun Sun Sun
Статистика раздачи
Автор: Nickolas3434 | Размер: 1.34 ГБ | Добавлен: 04 май 2016
Раздают: 34    Качают: 4
Скачать торрент
Скачать торрент
Описание торрента

СообщениеДобавлено: 04 май 2016 


Информация о фильме
Название: Черный бизнес
Год выхода: 1965
Жанр: Детектив
Режиссер: Василий Журавлев
В ролях: Иван Переверзев, Геннадий Юдин, Юрий Саранцев, Станислав Михин, Маргарита Володина, Аркадий Толбузин, Виктор Кулаков, Муза Крепкогорская, Феликс Яворский, Марина Стриженова, Павел Винник, Сергей Голованов, Алексей Смирнов, Павел Волков, Елизавета Алексеева
О фильме:
В качестве туристки в СССР приезжает опытная разведчица. Сотрудникам Комитета госбезопасности удается выяснить истинную причину визита мисс Ластер, выявить все ее многочисленные связи с агентами иностранной разведки, разоблачить и ликвидировать преступников.
Страна: СССР, Мосфильм
Продолжительность: 01:36:23
Перевод: не требуется
Файл
Кодек: x264
Качество: SATRip-AVC
Видео: MPEG-4, 1800 Кбит/с, 682x568@744х568
Звук: AC3, 2 ch, 192 Кбит/с

raw [info]: 682x568p 12:11 @ 25/1 fps (cfr)
x264 [info]: using SAR=12/11
x264 [info]: using cpu capabilities: MMX2 SSE2Fast SSSE3 SSE4.2 AVX
x264 [info]: profile High, level 4.1
x264 [info]: frame I:737 Avg QP:14.09 size: 59817
x264 [info]: frame P:29654 Avg QP:17.44 size: 22156
x264 [info]: frame B:114173 Avg QP:18.87 size: 5255
=================================================================================
Общее
Уникальный идентификатор : 212574063202959921125374711952218090975 (0x9FEC467ECBF6685DA7A5E5AE9D816DDF)
Полное имя : D:Чёрный бизнес_1965-SATRip-AVC.mkv
Формат : Matroska
Версия формата : Version 2
Размер файла : 1,34 Гбайт
Продолжительность : 1 ч. 36 м.
Общий поток : 1994 Кбит/сек
Дата кодирования : UTC 2016-04-29 14:33:29
Программа кодирования : mkvmerge v5.8.0 ('No Sleep / Pillow') built on Sep 2 2012 15:37:04
Библиотека кодирования : libebml v1.2.3 + libmatroska v1.3.0
Видео
Идентификатор : 1
Формат : AVC
Формат/Информация : Advanced Video Codec
Профиль формата : High@L4.1
Параметр CABAC формата : Да
Параметр ReFrames формата : 14 кадров
Идентификатор кодека : V_MPEG4/ISO/AVC
Продолжительность : 1 ч. 36 м.
Битрейт : 1800 Кбит/сек
Ширина : 682 пикселя
Высота : 568 пикселей
Соотношение сторон : 4:3
Режим частоты кадров : Постоянный
Частота кадров : 25,000 кадров/сек
Цветовое пространство : YUV
Субдискретизация насыщенности : 4:2:0
Битовая глубина : 8 бит
Тип развёртки : Прогрессивная
Бит/(Пиксели*Кадры) : 0.186
Размер потока : 1,19 Гбайт (88%)
Библиотека кодирования : x264 core 148 r2638 7599210
Настройки программы : cabac=1 / ref=14 / deblock=1:-2:-2 / analyse=0x3:0x133 / me=umh / subme=10 / psy=1 / psy_rd=1.05:0.15 / mixed_ref=1 / me_range=32 / chroma_me=1 / trellis=2 / 8x8dct=1 / cqm=0 / deadzone=21,11 / fast_pskip=0 / chroma_qp_offset=-3 / threads=12 / lookahead_threads=3 / sliced_threads=0 / nr=0 / decimate=0 / interlaced=0 / bluray_compat=0 / constrained_intra=0 / bframes=10 / b_pyramid=2 / b_adapt=2 / b_bias=0 / direct=3 / weightb=1 / open_gop=0 / weightp=2 / keyint=250 / keyint_min=25 / scenecut=40 / intra_refresh=0 / rc=2pass / mbtree=0 / bitrate=1800 / ratetol=1.0 / qcomp=0.63 / qpmin=0 / qpmax=39 / qpstep=4 / cplxblur=20.0 / qblur=0.5 / ip_ratio=1.40 / pb_ratio=1.30 / aq=1:1.00
Язык : English
Default : Да
Forced : Нет
Цветовой диапазон : Limited
Основные цвета : BT.601 PAL
Характеристики трансфера : BT.470 System B, BT.470 System G
Коэффициенты матрицы : BT.601
Аудио
Идентификатор : 2
Формат : AC-3
Формат/Информация : Audio Coding 3
Расширение режима : CM (complete main)
Параметр Endianness формата : Big
Идентификатор кодека : A_AC3
Продолжительность : 1 ч. 36 м.
Вид битрейта : Постоянный
Битрейт : 192 Кбит/сек
Каналы : 2 канала
Расположение каналов : Front: L R
Частота : 48,0 КГц
Метод сжатия : С потерями
Размер потока : 132 Мбайт (10%)
Язык : Russian
Default : Да
Forced : Нет

Релиз от:
Автор релиза:



   Похожие торренты   Торрент   Размер 
В этой теме нет новых непрочитанных сообщений. Иду на грозу (1965) SATRip-AVC от ExKinoRay

79 | 13

2.15 ГБ

В этой теме нет новых непрочитанных сообщений. Чёрный треугольник (1981) SATRip-AVC от ExKinoRay

82 | 3

2.94 ГБ

В этой теме нет новых непрочитанных сообщений. Рискованный бизнес / Risky Business (1983) BDRip-AVC от ExKinoRay

28 | 3

2.04 ГБ

В этой теме нет новых непрочитанных сообщений. Евгений Грин - Бизнес идеи для начинающих (Работающие бизнес идеи) (2013) CAMRip

240 | 46

2.59 ГБ

В этой теме нет новых непрочитанных сообщений. Семейный бизнес [06] (2014) SATRip

251 | 7

291.12 МБ

В этой теме нет новых непрочитанных сообщений. Семейный бизнес [08] (2014) SATRip

238 | 30

279.03 МБ

В этой теме нет новых непрочитанных сообщений. Семейный бизнес [11] (2014) SATRip

293 | 25

299.76 МБ




Вы не можете начинать темы
Вы не можете отвечать на сообщения
Вы не можете редактировать свои сообщения
Вы не можете удалять свои сообщения
Вы не можете добавлять вложения

Перейти:  
Для Мосгорсуда, Роскомнадзора и рекламодателей: mosgorsud-torrent[собачка]yandex.ru
 Вход
ppkBB3cker v.2 © 2008-2014 @ PPK
[ Time : 0.047s | 14 Queries | GZIP : Off ]

Торрент трекер RUTOR.IN, Не можете зайти на rutor.org? Какой новый адрес рутор? Какое зеркало рутор? Не работает rutor.org и зеркала? Тогда наш торрент специально для вас. Rutor.in неофициальное зеркало rutor. В случае если у Вас заблокирован rutor или вдруг Вы не можете на него зайти, то Вы без труда сможете скачать бесплатно и без рекламы последние новинки кино, игр, сериалов и прочего у нас, на Rutor.in. Не нужно использовать прокси, чтобы зайти на рутор, достаточно воспользоваться нашим ресурсом. Все новые фильмы, игры, сериалы, книги и музыка за 2013 и 2014 годы через торрент бесплатно. Скачивайте фильмы в хорошем качестве, игры для пк, xbox, playstation без регистрации. У нас вы найдете новые Зарубежные сериалы и Русские сериалы 2013, 2014, 2015 годов. Оставайтесь с нами, качайте любимые фильмы, игры, сериалы, книги и музыку.