img image001 image001 image001 image001 image001 image001 image001 image001 image001 image001 image001 image001 image001 image001 image001

Planets Sun Sun Sun
Статистика раздачи
Автор: Nickolas3434 | Размер: 1.2 ГБ | Добавлен: 05 май 2016
Раздают: 95    Качают: 6
Скачать торрент
Скачать торрент
Описание торрента

СообщениеДобавлено: 05 май 2016 


Информация о фильме
Название: Хозяин тайги
Год выхода: 1968
Жанр: Криминальная драма, детектив
Режиссер: Владимир Назаров
В ролях: Владимир Высоцкий, Валерий Золотухин, Лионелла Пырьева, Михаил Кокшенов, Дмитрий Масанов, Леонид Кмит, Эдуард Бредун, Иван Косых, Павел Шпрингфельд, Владимир Липпарт, Екатерина Мазурова
О фильме:
В таежном поселке, где каждый на виду, происходит почти невероятное — ограблен местный магазин. Во взломе признается один из сплавщиков леса. Но молодому участковому не дают покоя кое-какие «нестыковки». И в конце концов он выходит на след подлинных участников преступления…
Страна: СССР, Мосфильм
Продолжительность: 01:18:19
Перевод: не требуется
Файл
Кодек: x264
Качество: DVDRip-AVC
Видео: MPEG-4 AVC, 2000 Кбит/с, 698х322@744x322
Звук: AC3, 2 ch, 192 Кбит/с

raw [info]: 698x322p 16:15 @ 25/1 fps (cfr)
x264 [info]: using SAR=16/15
x264 [info]: using cpu capabilities: MMX2 SSE2Fast SSSE3 SSE4.2 AVX
x264 [info]: profile High, level 4.1
x264 [info]: frame I:49 Avg QP:15.92 size: 59409
x264 [info]: frame P:686 Avg QP:19.42 size: 19332
x264 [info]: frame B:1801 Avg QP:20.34 size: 5167
============================================================================================
Общее
Уникальный идентификатор : 177492514410385967816073924998582438915 (0x8587D09967582814B1B599FDAEA70C03)
Полное имя : D:Хозяин тайги_1968-DVDRip-AVC.mkv
Формат : Matroska
Версия формата : Version 2
Размер файла : 1,20 Гбайт
Продолжительность : 1 ч. 18 м.
Общий поток : 2194 Кбит/сек
Дата кодирования : UTC 2016-04-26 22:13:05
Программа кодирования : mkvmerge v5.8.0 ('No Sleep / Pillow') built on Sep 2 2012 15:37:04
Библиотека кодирования : libebml v1.2.3 + libmatroska v1.3.0
Видео
Идентификатор : 1
Формат : AVC
Формат/Информация : Advanced Video Codec
Профиль формата : High@L4.1
Параметр CABAC формата : Да
Параметр ReFrames формата : 14 кадров
Идентификатор кодека : V_MPEG4/ISO/AVC
Продолжительность : 1 ч. 18 м.
Битрейт : 2000 Кбит/сек
Ширина : 698 пикселей
Высота : 322 пикселя
Соотношение сторон : 2,35:1
Соотношение сторон в оригинале : 2,35:1
Режим частоты кадров : Постоянный
Частота кадров : 25,000 кадров/сек
Цветовое пространство : YUV
Субдискретизация насыщенности : 4:2:0
Битовая глубина : 8 бит
Тип развёртки : Прогрессивная
Бит/(Пиксели*Кадры) : 0.356
Размер потока : 1,07 Гбайт (89%)
Библиотека кодирования : x264 core 148 r2638 7599210
Настройки программы : cabac=1 / ref=14 / deblock=1:-2:-2 / analyse=0x3:0x133 / me=umh / subme=10 / psy=1 / psy_rd=1.05:0.10 / mixed_ref=1 / me_range=32 / chroma_me=1 / trellis=2 / 8x8dct=1 / cqm=0 / deadzone=21,11 / fast_pskip=0 / chroma_qp_offset=-3 / threads=10 / lookahead_threads=2 / sliced_threads=0 / nr=0 / decimate=0 / interlaced=0 / bluray_compat=0 / constrained_intra=0 / bframes=11 / b_pyramid=2 / b_adapt=2 / b_bias=0 / direct=3 / weightb=1 / open_gop=0 / weightp=2 / keyint=250 / keyint_min=25 / scenecut=40 / intra_refresh=0 / rc=2pass / mbtree=0 / bitrate=2000 / ratetol=1.0 / qcomp=0.63 / qpmin=0 / qpmax=39 / qpstep=4 / cplxblur=20.0 / qblur=0.5 / ip_ratio=1.40 / pb_ratio=1.30 / aq=1:1.00
Язык : English
Default : Да
Forced : Нет
Цветовой диапазон : Limited
Основные цвета : BT.601 PAL
Характеристики трансфера : BT.470 System B, BT.470 System G
Коэффициенты матрицы : BT.601
Аудио
Идентификатор : 2
Формат : AC-3
Формат/Информация : Audio Coding 3
Расширение режима : CM (complete main)
Параметр Endianness формата : Big
Идентификатор кодека : A_AC3
Продолжительность : 1 ч. 18 м.
Вид битрейта : Постоянный
Битрейт : 192 Кбит/сек
Каналы : 2 канала
Расположение каналов : Front: L R
Частота : 48,0 КГц
Метод сжатия : С потерями
Задержка видео : 484 мс.
Размер потока : 108 Мбайт (9%)
Язык : Russian
Default : Да
Forced : Нет
Меню
00:00:00.000 : ru:Chapter 1
00:07:39.360 : ru:Chapter 2
00:12:12.000 : ru:Chapter 3
00:18:17.280 : ru:Chapter 4
00:25:51.360 : ru:Chapter 5
00:29:27.360 : ru:Chapter 6
00:38:00.000 : ru:Chapter 7
00:44:18.720 : ru:Chapter 8
00:51:02.880 : ru:Chapter 9
00:59:27.360 : ru:Chapter 10
01:04:01.440 : ru:Chapter 11
01:10:25.920 : ru:Chapter 12

Релиз от:
Автор релиза:



   Похожие торренты   Торрент   Размер 
В этой теме нет новых непрочитанных сообщений. Хозяин тайги (1968) DVDRip от Youtracker

92 | 22

1.42 ГБ

В этой теме нет новых непрочитанных сообщений. Хозяин тайги (1968) DVDRip от Youtracker

310 | 11

746.33 МБ

В этой теме нет новых непрочитанных сообщений. Хозяин тайги (1968) DVDRip от Русфильм

25 | 10

1.37 ГБ

В этой теме нет новых непрочитанных сообщений. Хозяин тайги (1968) DVDRip-AVC | от DHT-Movies

0 | 2

698.6 МБ

В этой теме нет новых непрочитанных сообщений. Хозяин тайги (1968) DVD5

5 | 7

3.52 ГБ

В этой теме нет новых непрочитанных сообщений. Хозяин ветров (1984) DVDRip от ExKinoRay

2 | 12

169.83 МБ

В этой теме нет новых непрочитанных сообщений. Щит и меч (1968) DVDRip-AVC от ExKinoRay

162 | 12

5.29 ГБ




Вы не можете начинать темы
Вы не можете отвечать на сообщения
Вы не можете редактировать свои сообщения
Вы не можете удалять свои сообщения
Вы не можете добавлять вложения

Перейти:  
Для Мосгорсуда, Роскомнадзора и рекламодателей: mosgorsud-torrent[собачка]yandex.ru
 Вход
ppkBB3cker v.2 © 2008-2014 @ PPK
[ Time : 0.160s | 15 Queries | GZIP : Off ]

Торрент трекер RUTOR.IN, Не можете зайти на rutor.org? Какой новый адрес рутор? Какое зеркало рутор? Не работает rutor.org и зеркала? Тогда наш торрент специально для вас. Rutor.in неофициальное зеркало rutor. В случае если у Вас заблокирован rutor или вдруг Вы не можете на него зайти, то Вы без труда сможете скачать бесплатно и без рекламы последние новинки кино, игр, сериалов и прочего у нас, на Rutor.in. Не нужно использовать прокси, чтобы зайти на рутор, достаточно воспользоваться нашим ресурсом. Все новые фильмы, игры, сериалы, книги и музыка за 2013 и 2014 годы через торрент бесплатно. Скачивайте фильмы в хорошем качестве, игры для пк, xbox, playstation без регистрации. У нас вы найдете новые Зарубежные сериалы и Русские сериалы 2013, 2014, 2015 годов. Оставайтесь с нами, качайте любимые фильмы, игры, сериалы, книги и музыку.