img image001 image001 image001 image001 image001 image001 image001 image001 image001 image001 image001 image001 image001 image001 image001

Planets Sun Sun Sun
Статистика раздачи
Автор: Nickolas3434 | Размер: 1.37 ГБ | Добавлен: 06 май 2016
Раздают: 54    Качают: 1
Скачать торрент
Скачать торрент
Описание торрента

СообщениеДобавлено: 06 май 2016 

Маршрут построен


Страна: Россия
Жанр: ужасы, триллер
Год выпуска: 2016
Продолжительность: 01:21:44
Перевод: Не требуется (русский)
Cубтитры: нет
Оригинальная аудиодорожка: русский
Режиссер: Олег Асадулин
В ролях: Светлана Устинова, Павел Чинарёв, Виталия Корниенко, Кристина Шаповалова, Сергей Сафронов, Илья Сафронов, Андрей Сафронов, Диана Мелисон, Александр Цёма
Описание:
Прошлой весной произошло страшное преступление - в результате ссоры муж убил жену, расчленил труп и спрятал в багажнике их автомобиля. Несмотря на попытки отвести от себя подозрение, убийца вскоре был арестован полицией. Андрей и Оля - семейная пара. Андрей покупает подозрительно дешевый автомобиль в хорошем состоянии. Тем же вечером, взяв свою пятилетнюю дочь, они отправляются в ночную поездку в другой город. В дороге Оля слышит какие-то странные звуки и говорит Андрею, что чувствует - с машиной что-то не то. Это вызывает раздражение Андрея, который ничего этого не замечает, и становится поводом для конфликта. Тем временем их дочка на заднем сидении общается с какой-то невидимой тетей, но родители не слышат. Призрак убитой женщины не любит семейных ссор, и наши герои в ее власти... Их маршрут уже построен.

Релиз:
Автор рипа: Stalker oK
Сэмпл
Качество видео: WEB-DLRip-AVC [RUTOR / WEB-DL / 1080p]
Формат видео: MKV
Видео кодек: AVC
Аудио кодек: AC3
Видео: 2208 Кбит/сек, 1120*476 (2,35:1), в 25,000 кадров/сек, AVC
Аудио: русский, 192 Кбит/сек, 44,1 КГц, 2 канала, AC-3

Общее
Уникальный идентификатор : 178014230159912013948147556778195927794 (0x85EC4B2BF04FAC6186DDA6F2F901C2F2)
Полное имя : M:1WEB-DLMarshrut postroenMarshrut.postroen.2016.WEB-DLRip-AVC.1.37Gb.stalkerok.new-team.mkv
Формат : Matroska
Версия формата : Version 4 / Version 2
Размер файла : 1,37 Гбайт
Продолжительность : 1 ч. 21 м.
Общий поток : 2399 Кбит/сек
Название фильма : Маршрут построен (2016) (New-Team) (Rip by Stalker oK)
Дата кодирования : UTC 2016-05-04 16:54:44
Программа кодирования : mkvmerge v8.6.1 ('Flying') 64bit
Библиотека кодирования : libebml v1.3.3 + libmatroska v1.4.4
Видео
Идентификатор : 1
Формат : AVC
Формат/Информация : Advanced Video Codec
Профиль формата : High@L4.1
Параметр CABAC формата : Да
Параметр ReFrames формата : 14 кадров
Идентификатор кодека : V_MPEG4/ISO/AVC
Продолжительность : 1 ч. 21 м.
Битрейт : 2208 Кбит/сек
Ширина : 1120 пикселей
Высота : 476 пикселей
Соотношение сторон : 2,35:1
Режим частоты кадров : Постоянный
Частота кадров : 25,000 кадров/сек
Цветовое пространство : YUV
Субдискретизация насыщенности : 4:2:0
Битовая глубина : 8 бит
Тип развёртки : Прогрессивная
Бит/(Пиксели*Кадры) : 0.166
Размер потока : 1,26 Гбайт (92%)
Заголовок : Маршрут построен (2016) (New-Team) (Rip by Stalker oK)
Библиотека кодирования : x264 core 148 r2665kMod a01e339
Настройки программы : cabac=1 / ref=14 / deblock=1:-3:-2 / analyse=0x3:0x133 / me=umh / subme=11 / psy=1 / fade_compensate=0.00 / psy_rd=1.00:0.05 / mixed_ref=1 / me_range=48 / chroma_me=1 / trellis=2 / 8x8dct=1 / cqm=0 / deadzone=21,11 / fast_pskip=0 / chroma_qp_offset=-3 / threads=12 / lookahead_threads=3 / sliced_threads=0 / nr=0 / decimate=0 / interlaced=0 / bluray_compat=0 / constrained_intra=0 / fgo=0 / bframes=15 / b_pyramid=2 / b_adapt=2 / b_bias=0 / direct=3 / weightb=1 / open_gop=0 / weightp=2 / keyint=250 / keyint_min=25 / scenecut=40 / intra_refresh=0 / rc_lookahead=60 / rc=2pass / mbtree=0 / bitrate=2208 / ratetol=1.0 / qcomp=0.70 / qpmin=0 / qpmax=69 / qpstep=4 / cplxblur=20.0 / qblur=0.5 / vbv_maxrate=50000 / vbv_bufsize=62500 / nal_hrd=none / filler=0 / ip_ratio=1.40 / pb_ratio=1.30 / aq=3:0.87
Default : Да
Forced : Нет
Аудио
Идентификатор : 2
Формат : AC-3
Формат/Информация : Audio Coding 3
Расширение режима : CM (complete main)
Параметр Endianness формата : Big
Идентификатор кодека : A_AC3
Продолжительность : 1 ч. 21 м.
Вид битрейта : Постоянный
Битрейт : 192 Кбит/сек
Каналы : 2 канала
Расположение каналов : Front: L R
Частота : 44,1 КГц
Частота кадров : 28,711 кадров/сек (1536 spf)
Метод сжатия : С потерями
Размер потока : 112 Мбайт (8%)
Язык : Russian
Default : Да
Forced : Нет





   Похожие торренты   Торрент   Размер 
В этой теме нет новых непрочитанных сообщений. Маршрут построен (2016) WEB-DLRip-AVC от New-Team

192 | 2

746.07 МБ

В этой теме нет новых непрочитанных сообщений. Маршрут построен (2016) WEB-DLRip-AVC от ExKinoRay

50 | 1

1.6 ГБ

В этой теме нет новых непрочитанных сообщений. Маршрут построен (2016) WEB-DLRip от MegaPeer

26 | 1

742.88 МБ

В этой теме нет новых непрочитанных сообщений. Маршрут построен (2016) WEB-DLRip от Generalfilm | КПК

125 | 3

289.67 МБ

В этой теме нет новых непрочитанных сообщений. Маршрут построен (2016) WEB-DLRip от Scarabey

285 | 9

1.46 ГБ

В этой теме нет новых непрочитанных сообщений. Маршрут построен (2016) WEB-DLRip-AVC от NNMClub

206 | 2

1.45 ГБ

В этой теме нет новых непрочитанных сообщений. Маршрут построен (2016) WEB-DLRip от MegaPeer

93 | 6

742.29 МБ




Вы не можете начинать темы
Вы не можете отвечать на сообщения
Вы не можете редактировать свои сообщения
Вы не можете удалять свои сообщения
Вы не можете добавлять вложения

Перейти:  
Для Мосгорсуда, Роскомнадзора и рекламодателей: mosgorsud-torrent[собачка]yandex.ru
 Вход
ppkBB3cker v.2 © 2008-2014 @ PPK
[ Time : 0.076s | 15 Queries | GZIP : Off ]

Торрент трекер RUTOR.IN, Не можете зайти на rutor.org? Какой новый адрес рутор? Какое зеркало рутор? Не работает rutor.org и зеркала? Тогда наш торрент специально для вас. Rutor.in неофициальное зеркало rutor. В случае если у Вас заблокирован rutor или вдруг Вы не можете на него зайти, то Вы без труда сможете скачать бесплатно и без рекламы последние новинки кино, игр, сериалов и прочего у нас, на Rutor.in. Не нужно использовать прокси, чтобы зайти на рутор, достаточно воспользоваться нашим ресурсом. Все новые фильмы, игры, сериалы, книги и музыка за 2013 и 2014 годы через торрент бесплатно. Скачивайте фильмы в хорошем качестве, игры для пк, xbox, playstation без регистрации. У нас вы найдете новые Зарубежные сериалы и Русские сериалы 2013, 2014, 2015 годов. Оставайтесь с нами, качайте любимые фильмы, игры, сериалы, книги и музыку.