img image001 image001 image001 image001 image001 image001 image001 image001 image001 image001 image001 image001 image001 image001 image001

Planets Sun Sun Sun
Статистика раздачи
Автор: Nickolas3434 | Размер: 2.84 ГБ | Добавлен: 05 май 2016
Раздают: 6    Качают: 2
Скачать торрент
Скачать торрент
Описание торрента

СообщениеДобавлено: 05 май 2016 

Страна: СССР
Производство: Одесская киностудия
Жанр: детский, приключения
Год выпуска: 1976
Продолжительность: 03:08:01 (01:02:47 + 01:02:05 + 01:03:09)
Перевод: Не требуется
Cубтитры: нет
Оригинальная аудиодорожка: русский
Режиссер: Александр Игишев
В ролях:
Леонид Рисов, Таня Григоренко, Вадим Мадянов, Владимир Корецкий, Наталья Фатеева, Анатолий Грачёв, Юрий Астафьев, Геннадий Чулков, Игорь Соколов, Павел Винник, Владимир Самойлов, Сергей Яковлев, Ангелина Степанова, Арнольд Помазан, Александр Мовчан, Владимир Станкевич...
Полный список актёров
Описание:
Приключенческий телесериал для детей. По мотивам одноименной повести Аркадия Гайдара.
Барабанщик пионерского отряда Сережа Щербачёв попадает в беду. Легкомыслие мачехи приводит отца Сережи на скамью подсудимых. Мальчика пытаются использовать в своих целях уголовные элементы и агент иностранной разведки...





Источник: DVB
Качество видео: SATRip
Формат видео: AVI
Видео: 704x528 (4:3), 25 fps, XviD ~ 2010 kbps avg, 0.216 bit/pixel
Аудио: 48 kHz, Dolby Digital AC3 2.0, 192 kbps
Раздача от:
Общее
Полное имя : Sudba.barabanshhika.1976.DVDRip_[New-team]_by_AVP_Studio2.avi
Формат : AVI
Формат/Информация : Audio Video Interleave
Размер файла : 918 Мбайт
Продолжительность : 1 ч. 2 м.
Общий поток : 2066 Кбит/сек
Программа кодирования : VirtualDubMod 1.5.10.3 | www.virtualdub-fr.org || (build 2550/release)
Библиотека кодирования : VirtualDubMod build 2550/release
Видео
Идентификатор : 0
Формат : MPEG-4 Visual
Профиль формата : Advanced Simple@L5
Параметр BVOP формата : 1
Параметр QPel формата : Нет
Параметр GMC формата : Без точки перехода
Параметр матрицы формата : Выборочная
Идентификатор кодека : XVID
Идентификатор кодека/Подсказка : XviD
Продолжительность : 1 ч. 2 м.
Битрейт : 2010 Кбит/сек
Ширина : 704 пикселя
Высота : 528 пикселей
Соотношение сторон : 4:3
Частота кадров : 25,000 кадров/сек
Цветовое пространство : YUV
Субдискретизация насыщенности : 4:2:0
Битовая глубина : 8 бит
Тип развёртки : Прогрессивная
Метод сжатия : С потерями
Бит/(Пиксели*Кадры) : 0.216
Размер потока : 893 Мбайт (97%)
Библиотека кодирования : XviD 1.2.1 (UTC 2008-12-04)
Аудио
Идентификатор : 1
Формат : AC-3
Формат/Информация : Audio Coding 3
Расширение режима : CM (complete main)
Параметр Endianness формата : Big
Идентификатор кодека : 2000
Продолжительность : 16 м.
Продолжительность оригинала : 16 м.
Вид битрейта : Постоянный
Битрейт : 192 Кбит/сек
Каналы : 2 канала
Расположение каналов : Front: L R
Частота : 48,0 КГц
Частота кадров : 31,250 кадров/сек (1536 spf)
Метод сжатия : С потерями
Размер потока : 22,4 Мбайт (2%)
Выравнивание : Разделение по промежуткам
Продолжительность промежутка : 153 мс. (3,82 видеокадра)
Время предзагрузки промежутка : 500 мс





   Похожие торренты   Торрент   Размер 
В этой теме нет новых непрочитанных сообщений. Судьба барабанщика [01-03 из 03] (1976) SATRip от New-Team

79 | 1

1.46 ГБ

В этой теме нет новых непрочитанных сообщений. Судьба барабанщика [01-03 из 03] (1976) SATRip-AVC от New-Team

38 | 0

2.91 ГБ

В этой теме нет новых непрочитанных сообщений. Судьба барабанщика (1955) DVDRip-AVC от New-Team

29 | 1

1.09 ГБ

В этой теме нет новых непрочитанных сообщений. Судьба барабанщика (1955) DVDRip от New-Team

9 | 2

1.09 ГБ

В этой теме нет новых непрочитанных сообщений. Судьба барабанщика (1955) DVDRip от New-Team

4 | 5

743.44 МБ

В этой теме нет новых непрочитанных сообщений. Судьба барабанщика (1955) DVDRip

36 | 8

1.28 ГБ

В этой теме нет новых непрочитанных сообщений. 17 лет / Семнадцать лет / Судьба барабанщика / 17 anni / Age 17 (2013) DVDRip-AVC | L1

22 | 0

233.24 МБ




Вы не можете начинать темы
Вы не можете отвечать на сообщения
Вы не можете редактировать свои сообщения
Вы не можете удалять свои сообщения
Вы не можете добавлять вложения

Перейти:  
Для Мосгорсуда, Роскомнадзора и рекламодателей: mosgorsud-torrent[собачка]yandex.ru
 Вход
ppkBB3cker v.2 © 2008-2014 @ PPK
[ Time : 0.061s | 17 Queries | GZIP : Off ]

Торрент трекер RUTOR.IN, Не можете зайти на rutor.org? Какой новый адрес рутор? Какое зеркало рутор? Не работает rutor.org и зеркала? Тогда наш торрент специально для вас. Rutor.in неофициальное зеркало rutor. В случае если у Вас заблокирован rutor или вдруг Вы не можете на него зайти, то Вы без труда сможете скачать бесплатно и без рекламы последние новинки кино, игр, сериалов и прочего у нас, на Rutor.in. Не нужно использовать прокси, чтобы зайти на рутор, достаточно воспользоваться нашим ресурсом. Все новые фильмы, игры, сериалы, книги и музыка за 2013 и 2014 годы через торрент бесплатно. Скачивайте фильмы в хорошем качестве, игры для пк, xbox, playstation без регистрации. У нас вы найдете новые Зарубежные сериалы и Русские сериалы 2013, 2014, 2015 годов. Оставайтесь с нами, качайте любимые фильмы, игры, сериалы, книги и музыку.
cron