img image001 image001 image001 image001 image001 image001 image001 image001 image001 image001 image001 image001 image001 image001 image001

Planets Sun Sun Sun
Статистика раздачи
Автор: Nickolas3434 | Размер: 1.6 ГБ | Добавлен: 06 май 2016
Раздают: 50    Качают: 1
Скачать торрент
Скачать торрент
Описание торрента

СообщениеДобавлено: 06 май 2016 


Информация о фильме
Оригинальное название: Маршрут построен
Год выпуска: 2016
Жанр: Ужасы, триллер
Выпущено: Россия, Ультра Стори
Режиссер: Олег Асадулин
В ролях: Светлана Устинова, Павел Чинарёв, Виталия Корниенко, Кристина Шаповалова, Сергей Сафронов, Илья Сафронов, Андрей Сафронов, Диана Мелисон, Александр Цёма
О фильме: Прошлой весной произошло страшное преступление — в результате ссоры муж убил жену, расчленил труп и спрятал в багажнике их автомобиля. Несмотря на попытки отвести от себя подозрение, убийца вскоре был арестован полицией. Андрей и Оля — семейная пара. Андрей покупает подозрительно дешевый автомобиль в хорошем состоянии. Тем же вечером, взяв свою пятилетнюю дочь, они отправляются в ночную поездку в другой город. В дороге Оля слышит какие-то странные звуки и говорит Андрею, что чувствует — с машиной что-то не то. Это вызывает раздражение Андрея, который ничего этого не замечает, и становится поводом для конфликта. Тем временем их дочка на заднем сидении общается с какой-то невидимой тетей, но родители не слышат. Призрак убитой женщины не любит семейных ссор, и наши герои в ее власти… Их маршрут уже построен.

Файл
Качество: WEB-DLRip (AVC)
Видео: MPEG-4 AVC, 2613 Кбит/с, 1024x436, 25 кадр/с
Аудио: AC3, 2 ch, 192 Кбит/с
Размер: 1.60 ГБ
Продолжительность: 01:21:45
Язык: Русский
x264 [info]: frame I:1758 Avg QP:11.73 size: 46283
x264 [info]: frame P:68574 Avg QP:13.84 size: 17720
x264 [info]: frame B:52281 Avg QP:15.46 size: 5838
x264 [info]: consecutive B-frames: 30.0% 41.1% 7.6% 7.0% 8.2% 4.0% 0.6% 0.0% 0.1% 1.5%
x264 [info]: mb I I16..4: 14.0% 62.5% 23.5%
x264 [info]: mb P I16..4: 4.4% 19.0% 3.9% P16..4: 26.6% 30.8% 9.8% 0.9% 0.1% skip: 4.5%
x264 [info]: mb B I16..4: 1.1% 2.6% 0.5% B16..8: 30.3% 22.1% 4.2% direct: 6.7% skip:32.5% L0:44.9% L1:43.1% BI:12.0%
x264 [info]: 8x8 transform intra:68.2% inter:51.1%
x264 [info]: direct mvs spatial:94.4% temporal:5.6%
x264 [info]: coded y,uvDC,uvAC intra: 58.7% 91.4% 86.2% inter: 24.7% 47.2% 33.4%
x264 [info]: i16 v,h,dc,p: 57% 15% 11% 17%
x264 [info]: i8 v,h,dc,ddl,ddr,vr,hd,vl,hu: 12% 9% 31% 7% 7% 8% 8% 8% 10%
x264 [info]: i4 v,h,dc,ddl,ddr,vr,hd,vl,hu: 25% 12% 32% 4% 6% 5% 5% 5% 6%
x264 [info]: i8c dc,h,v,p: 54% 22% 16% 8%
x264 [info]: Weighted P-Frames: Y:3.7% UV:1.3%
x264 [info]: ref P L0: 54.9% 6.6% 13.0% 6.5% 4.8% 3.7% 3.1% 1.9% 1.6% 1.4% 1.2% 1.0% 0.4% 0.0%
x264 [info]: ref B L0: 69.5% 15.0% 5.8% 2.8% 2.0% 1.6% 1.3% 0.8% 0.7% 0.5% 0.1%
x264 [info]: ref B L1: 95.9% 4.1%
x264 [info]: kb/s:2612.59

Общее
Уникальный идентификатор : 253436023640860222345336116497973949033 (0xBEAA00B0662A5C9F80EAB050D166B269)
Полное имя : D:ЗагрузкиMarshrut.Postroen.2016.x264.WEB-DLRip.AVC.ExKinoRay.mkv
Формат : Matroska
Версия формата : Version 2
Размер файла : 1,60 Гбайт
Продолжительность : 1 ч. 21 м.
Общий поток : 2807 Кбит/сек
Название фильма : Маршрут построен.2016.Rip by: ollan
Дата кодирования : UTC 2016-05-05 07:45:51
Программа кодирования : mkvmerge v5.6.0 ('Kenya Kane') built on May 27 2012 16:44:04
Библиотека кодирования : libebml v1.2.3 + libmatroska v1.3.0
Attachements : Cover - Marshrut.Postroen.png
Видео
Идентификатор : 1
Формат : AVC
Формат/Информация : Advanced Video Codec
Профиль формата : High@L4.1
Параметр CABAC формата : Да
Параметр ReFrames формата : 12 кадров
Идентификатор кодека : V_MPEG4/ISO/AVC
Продолжительность : 1 ч. 21 м.
Битрейт : 2613 Кбит/сек
Ширина : 1024 пикселя
Высота : 436 пикселей
Соотношение сторон : 2,35:1
Режим частоты кадров : Постоянный
Частота кадров : 25,000 кадров/сек
Цветовое пространство : YUV
Субдискретизация насыщенности : 4:2:0
Битовая глубина : 8 бит
Тип развёртки : Прогрессивная
Бит/(Пиксели*Кадры) : 0.234
Размер потока : 1,46 Гбайт (91%)
Библиотека кодирования : x264 core 146 r2538 121396c
Настройки программы : cabac=1 / ref=12 / deblock=1:-3:-3 / analyse=0x3:0x133 / me=umh / subme=11 / psy=1 / psy_rd=1.00:0.10 / mixed_ref=1 / me_range=48 / chroma_me=1 / trellis=2 / 8x8dct=1 / cqm=0 / deadzone=21,11 / fast_pskip=0 / chroma_qp_offset=-3 / threads=12 / lookahead_threads=1 / sliced_threads=0 / nr=0 / decimate=0 / interlaced=0 / bluray_compat=0 / constrained_intra=0 / bframes=9 / b_pyramid=2 / b_adapt=1 / b_bias=0 / direct=3 / weightb=1 / open_gop=0 / weightp=2 / keyint=250 / keyint_min=25 / scenecut=40 / intra_refresh=0 / rc_lookahead=40 / rc=2pass / mbtree=0 / bitrate=2613 / ratetol=1.0 / qcomp=0.60 / qpmin=0 / qpmax=69 / qpstep=4 / cplxblur=20.0 / qblur=0.5 / vbv_maxrate=50000 / vbv_bufsize=62500 / nal_hrd=none / filler=0 / ip_ratio=1.40 / pb_ratio=1.30 / aq=1:1.00
Язык : Russian
Default : Да
Forced : Нет
Аудио
Идентификатор : 2
Формат : AC-3
Формат/Информация : Audio Coding 3
Расширение режима : CM (complete main)
Параметр Endianness формата : Big
Идентификатор кодека : A_AC3
Продолжительность : 1 ч. 21 м.
Вид битрейта : Постоянный
Битрейт : 192 Кбит/сек
Каналы : 2 канала
Расположение каналов : Front: L R
Частота : 44,1 КГц
Частота кадров : 28,711 кадров/сек (1536 spf)
Метод сжатия : С потерями
Размер потока : 112 Мбайт (7%)
Язык : Russian
Default : Да
Forced : Нет





Релиз от: Rip by:



   Похожие торренты   Торрент   Размер 
В этой теме нет новых непрочитанных сообщений. Маршрут построен [01] (2016) HDTVRip от ExKinoRay

18 | 2

373.04 МБ

В этой теме нет новых непрочитанных сообщений. Маршрут построен (2016) WEB-DLRip-AVC от NNMClub

206 | 2

1.45 ГБ

В этой теме нет новых непрочитанных сообщений. Маршрут построен (2016) WEB-DLRip-AVC от New-Team

54 | 1

1.37 ГБ

В этой теме нет новых непрочитанных сообщений. Маршрут построен (2016) WEB-DLRip от Generalfilm | КПК

125 | 3

289.67 МБ

В этой теме нет новых непрочитанных сообщений. Маршрут построен (2016) WEB-DLRip от MegaPeer

93 | 6

742.29 МБ

В этой теме нет новых непрочитанных сообщений. Маршрут построен (2016) WEB-DLRip от MegaPeer

26 | 1

742.88 МБ

В этой теме нет новых непрочитанных сообщений. Маршрут построен (2016) WEB-DLRip от Scarabey

285 | 9

1.46 ГБ




Вы не можете начинать темы
Вы не можете отвечать на сообщения
Вы не можете редактировать свои сообщения
Вы не можете удалять свои сообщения
Вы не можете добавлять вложения

Перейти:  
Для Мосгорсуда, Роскомнадзора и рекламодателей: mosgorsud-torrent[собачка]yandex.ru
 Вход
ppkBB3cker v.2 © 2008-2014 @ PPK
[ Time : 0.033s | 14 Queries | GZIP : Off ]

Торрент трекер RUTOR.IN, Не можете зайти на rutor.org? Какой новый адрес рутор? Какое зеркало рутор? Не работает rutor.org и зеркала? Тогда наш торрент специально для вас. Rutor.in неофициальное зеркало rutor. В случае если у Вас заблокирован rutor или вдруг Вы не можете на него зайти, то Вы без труда сможете скачать бесплатно и без рекламы последние новинки кино, игр, сериалов и прочего у нас, на Rutor.in. Не нужно использовать прокси, чтобы зайти на рутор, достаточно воспользоваться нашим ресурсом. Все новые фильмы, игры, сериалы, книги и музыка за 2013 и 2014 годы через торрент бесплатно. Скачивайте фильмы в хорошем качестве, игры для пк, xbox, playstation без регистрации. У нас вы найдете новые Зарубежные сериалы и Русские сериалы 2013, 2014, 2015 годов. Оставайтесь с нами, качайте любимые фильмы, игры, сериалы, книги и музыку.