img image001 image001 image001 image001 image001 image001 image001 image001 image001 image001 image001 image001 image001 image001 image001

Planets Sun Sun Sun
Статистика раздачи
Автор: Nickolas3434 | Размер: 2.17 ГБ | Добавлен: 05 май 2016
Раздают: 221    Качают: 9
Скачать торрент
Скачать торрент
Описание торрента

СообщениеДобавлено: 05 май 2016 


Производство: Россия, компания MB Productions, компания Golden Key Entertainment
Жанр: Боевик, Криминал
Режиссер: Егор Кончаловский
Актеры: Гоша Куценко, Михаил Ульянов, Сергей Шакуров, Александр Белявский, Виктор Сухоруков, Евгений Сидихин, Александр Балуев, Сергей Векслер, Михаил Ефремов, Виктория Толстоганова, Иван Бортник, Юрий Кузнецов, Вячеслав Разбегаев, Юсуп Бахшиев, Валентин Голубенко, Юрий Шерстнёв, Любовь Толкалина
Описание:
Бывший сотрудник уголовного розыска майор Коренев по прозвищу Лис, освобождается из заключения. Увы, Фемида бывает слепа. Не малую роль в этом сыграл один из криминальных авторитетов этого города — Шаман.
Сведения счетов с Шаманом и предавшими его коллегами не входили в планы Коренева, оказавшегося в родном городе, который захлестнула волна криминальных войн. Однако, столкнувшись с невероятным преступным беспределом, царившим в городе, и гибелью его друзей, бывший майор Коренев принимает решение навести порядок своими методами…

Релиз от: K.E.N (NNM-CLUB)
Продолжительность: 01:53:11
Качество видео: DVDRip
Перевод: Не требуется
Видео: AVC, 1024x576 (16:9), 25.000 fps, 2 299 Kbps (0.156 bit/pixel)
Аудио: AC-3, 48.0 KHz, 6 ch, 448 Kbps, CBR
Формат : Matroska
Версия формата : Version 2
Размер файла : 2,17 Гбайт
Продолжительность : 1 ч. 53 м.
Общий поток : 2748 Кбит/сек
Дата кодирования : UTC 2016-05-05 10:36:36
Программа кодирования : mkvmerge v5.3.0 ('I could have danced') built on Feb 9 2012 10:38:07
Библиотека кодирования : libebml v1.2.3 + libmatroska v1.3.0
Attachment : Yes
Видео
Идентификатор : 1
Формат : AVC
Формат/Информация : Advanced Video Codec
Профиль формата : High@L4.1
Параметр CABAC формата : Да
Параметр ReFrames формата : 9 кадров
Идентификатор кодека : V_MPEG4/ISO/AVC
Продолжительность : 1 ч. 53 м.
Битрейт : 2299 Кбит/сек
Ширина : 1024 пикселя
Высота : 576 пикселей
Соотношение сторон : 16:9
Режим частоты кадров : Постоянный
Частота кадров : 25,000 кадров/сек
Цветовое пространство : YUV
Субдискретизация насыщенности : 4:2:0
Битовая глубина : 8 бит
Тип развёртки : Прогрессивная
Бит/(Пиксели*Кадры) : 0.156
Размер потока : 1,78 Гбайт (82%)
Библиотека кодирования : x264 core 146 r2538 121396c
Настройки программы : cabac=1 / ref=9 / deblock=1:-3:-3 / analyse=0x3:0x133 / me=umh / subme=10 / psy=1 / psy_rd=1.00:0.15 / mixed_ref=1 / me_range=32 / chroma_me=1 / trellis=2 / 8x8dct=1 / cqm=0 / deadzone=21,11 / fast_pskip=0 / chroma_qp_offset=-3 / threads=12 / lookahead_threads=2 / sliced_threads=0 / nr=0 / decimate=0 / interlaced=0 / bluray_compat=0 / constrained_intra=0 / bframes=7 / b_pyramid=2 / b_adapt=2 / b_bias=0 / direct=3 / weightb=1 / open_gop=0 / weightp=2 / keyint=250 / keyint_min=25 / scenecut=40 / intra_refresh=0 / rc_lookahead=40 / rc=2pass / mbtree=0 / bitrate=2299 / ratetol=1.0 / qcomp=0.60 / qpmin=0 / qpmax=69 / qpstep=4 / cplxblur=20.0 / qblur=0.5 / vbv_maxrate=50000 / vbv_bufsize=62500 / nal_hrd=none / filler=0 / ip_ratio=1.40 / pb_ratio=1.30 / aq=2:0.80
Default : Да
Forced : Нет
Аудио
Идентификатор : 2
Формат : AC-3
Формат/Информация : Audio Coding 3
Расширение режима : CM (complete main)
Параметр Endianness формата : Big
Идентификатор кодека : A_AC3
Продолжительность : 1 ч. 53 м.
Вид битрейта : Постоянный
Битрейт : 448 Кбит/сек
Каналы : 6 каналов
Расположение каналов : Front: L C R, Side: L R, LFE
Частота : 48,0 КГц
Битовая глубина : 16 бит
Метод сжатия : С потерями
Размер потока : 363 Мбайт (16%)
Default : Да
Forced : Нет

Скриншоты:



   Похожие торренты   Торрент   Размер 
В этой теме нет новых непрочитанных сообщений. Антикиллер 2: Антитеррор (2003) DVDRip-AVC от NNMClub

155 | 7

2.18 ГБ

В этой теме нет новых непрочитанных сообщений. Антикиллер (2002) DVDRip

428 | 17

1.37 ГБ

В этой теме нет новых непрочитанных сообщений. Антикиллер (2002) DVDRip-AVC от olegek70

203 | 22

1.45 ГБ

В этой теме нет новых непрочитанных сообщений. Антикиллер (2002) DVDRip от Youtracker | ТВ версия

123 | 20

2.19 ГБ

В этой теме нет новых непрочитанных сообщений. Антикиллер: Трилогия (2002-2009) DVDRip

148 | 26

4.37 ГБ

В этой теме нет новых непрочитанных сообщений. Ангел мести / Avenging Angelo (2002) DVDRip-AVC от NNMClub | D, P, A

14 | 4

2.93 ГБ

В этой теме нет новых непрочитанных сообщений. Необратимость / Irreversible (2002) BDRip-AVC от NNMClub | P2

45 | 8

2.18 ГБ




Вы не можете начинать темы
Вы не можете отвечать на сообщения
Вы не можете редактировать свои сообщения
Вы не можете удалять свои сообщения
Вы не можете добавлять вложения

Перейти:  
Для Мосгорсуда, Роскомнадзора и рекламодателей: mosgorsud-torrent[собачка]yandex.ru
 Вход
ppkBB3cker v.2 © 2008-2014 @ PPK
[ Time : 0.035s | 17 Queries | GZIP : Off ]

Торрент трекер RUTOR.IN, Не можете зайти на rutor.org? Какой новый адрес рутор? Какое зеркало рутор? Не работает rutor.org и зеркала? Тогда наш торрент специально для вас. Rutor.in неофициальное зеркало rutor. В случае если у Вас заблокирован rutor или вдруг Вы не можете на него зайти, то Вы без труда сможете скачать бесплатно и без рекламы последние новинки кино, игр, сериалов и прочего у нас, на Rutor.in. Не нужно использовать прокси, чтобы зайти на рутор, достаточно воспользоваться нашим ресурсом. Все новые фильмы, игры, сериалы, книги и музыка за 2013 и 2014 годы через торрент бесплатно. Скачивайте фильмы в хорошем качестве, игры для пк, xbox, playstation без регистрации. У нас вы найдете новые Зарубежные сериалы и Русские сериалы 2013, 2014, 2015 годов. Оставайтесь с нами, качайте любимые фильмы, игры, сериалы, книги и музыку.
cron