img image001 image001 image001 image001 image001 image001 image001 image001 image001 image001 image001 image001 image001 image001 image001

Planets Sun Sun Sun
Статистика раздачи
Автор: Nickolas3434 | Размер: 3.71 ГБ | Добавлен: 08 май 2016
Раздают: 40    Качают: 4
Скачать торрент
Скачать торрент
Описание торрента

СообщениеДобавлено: 08 май 2016 


Информация о фильме
Название: Никколо Паганини
Год выхода: 1982
Жанр: Драма, биография
Режиссер: Леонид Менакер
В ролях: Владимир Мсрян, Альберт Филозов, Алла Чернова, Армен Джигарханян, Владимир Самойлов (I), Донатас Банионис, Юрий Катин-Ярцев, Всеволод Шиловский, Ольгерт Кродерс, Ваня Цветкова, Борис Арабов, Марин Янев, Юозас Будрайтис, Саулюс Баландис, Стефан Василев, Георги Георгиев-Гец, Виолета Донева, Римгаудас Карвялис, Борис Клюев, Пётр Слабаков, Валерий Еремичев, Владимир Пицек, Габриэль Воробьёв, Иван Дмитриев, Александр Романцов, Стефан Илиев, Юрис Стренга, Витаутас Томкус, Татьяна Маневская, Евгений Бочаров, Сергей Тимофеев, Александр Бакгоф
О фильме:
Биографический фильм о великом итальянском скрипаче и композиторе Никколо Паганини (1782-1840). Юлиус Шмидт, биограф Никколо Паганини, повествуя о его жизни, взлетах и падениях, любви и конфликтах с католической церковью, пытается постичь природу гения, разгадать причину гениальности произведений Паганини.
Страна: СССР, Болгария, Bulgaria TV, Гостелерадио, Ленфильм
Продолжительность: 4 x ~ 01:05:00
Перевод: не требуется
Файл
Кодек: x264
Качество: DVDRip-AVC
Видео: MPEG-4, 1800 Кбит/с, 720x574@768x574
Звук: AC3, 2 ch, 192 Кбит/с

Общее
Уникальный идентификатор : 252869517073653749465213260461346691013 (0xBE3CE5C243AD32D9891751C8F6F897C5)
Полное имя : R:МОИ РИПЫНикколо Паганини_1982-DVDRip-AVCПаганини-1.mkv
Формат : Matroska
Версия формата : Version 2
Размер файла : 977 Мбайт
Продолжительность : 1 ч. 8 м.
Общий поток : 1994 Кбит/сек
Дата кодирования : UTC 2016-05-03 07:48:52
Программа кодирования : mkvmerge v5.8.0 ('No Sleep / Pillow') built on Sep 2 2012 15:37:04
Библиотека кодирования : libebml v1.2.3 + libmatroska v1.3.0
Видео
Идентификатор : 1
Формат : AVC
Формат/Информация : Advanced Video Codec
Профиль формата : High@L4.1
Параметр CABAC формата : Да
Параметр ReFrames формата : 15 кадров
Идентификатор кодека : V_MPEG4/ISO/AVC
Продолжительность : 1 ч. 8 м.
Битрейт : 1800 Кбит/сек
Ширина : 720 пикселей
Высота : 574 пикселя
Соотношение сторон : 4:3
Режим частоты кадров : Постоянный
Частота кадров : 25,000 кадров/сек
Цветовое пространство : YUV
Субдискретизация насыщенности : 4:2:0
Битовая глубина : 8 бит
Тип развёртки : Прогрессивная
Бит/(Пиксели*Кадры) : 0.174
Размер потока : 864 Мбайт (88%)
Библиотека кодирования : x264 core 148 r2638 7599210
Настройки программы : cabac=1 / ref=15 / deblock=1:-2:-2 / analyse=0x3:0x133 / me=umh / subme=10 / psy=1 / psy_rd=1.05:0.10 / mixed_ref=1 / me_range=32 / chroma_me=1 / trellis=2 / 8x8dct=1 / cqm=0 / deadzone=21,11 / fast_pskip=0 / chroma_qp_offset=-3 / threads=12 / lookahead_threads=3 / sliced_threads=0 / nr=0 / decimate=0 / interlaced=0 / bluray_compat=0 / constrained_intra=0 / bframes=10 / b_pyramid=2 / b_adapt=2 / b_bias=0 / direct=3 / weightb=1 / open_gop=0 / weightp=2 / keyint=250 / keyint_min=25 / scenecut=40 / intra_refresh=0 / rc_lookahead=60 / rc=2pass / mbtree=1 / bitrate=1800 / ratetol=1.0 / qcomp=0.70 / qpmin=0 / qpmax=39 / qpstep=4 / cplxblur=20.0 / qblur=0.5 / ip_ratio=1.40 / aq=1:1.00
Язык : English
Default : Да
Forced : Нет
Цветовой диапазон : Limited
Основные цвета : BT.601 PAL
Характеристики трансфера : BT.470 System B, BT.470 System G
Коэффициенты матрицы : BT.601
Аудио
Идентификатор : 2
Формат : AC-3
Формат/Информация : Audio Coding 3
Расширение режима : CM (complete main)
Параметр Endianness формата : Big
Идентификатор кодека : A_AC3
Продолжительность : 1 ч. 8 м.
Вид битрейта : Постоянный
Битрейт : 192 Кбит/сек
Каналы : 2 канала
Расположение каналов : Front: L R
Частота : 48,0 КГц
Метод сжатия : С потерями
Размер потока : 94,1 Мбайт (10%)
Язык : Russian
Default : Да
Forced : Нет

Релиз от:
Автор релиза:



   Похожие торренты   Торрент   Размер 
В этой теме нет новых непрочитанных сообщений. Никколо Паганини (1982) DVDRip

190 | 12

4.11 ГБ

В этой теме нет новых непрочитанных сообщений. Никколо Паганини / Niccolo Paganini - Romantic Classic (1999) MP3 от BestSound ExKinoRay

48 | 9

174.25 МБ

В этой теме нет новых непрочитанных сообщений. Никколо Паганини / Niccolo Paganini - Romantic Classic (1999) FLAC

192 | 5

358.23 МБ

В этой теме нет новых непрочитанных сообщений. Инспектор ГАИ (1982) DVDRip-AVC от ExKinoRay

126 | 29

1.7 ГБ

В этой теме нет новых непрочитанных сообщений. Чародеи (1982) DVDRip-AVC от ExKinoRay

1177 | 46

3.26 ГБ

В этой теме нет новых непрочитанных сообщений. Сказка странствий (1982) DVDRip от ExKinoRay

126 | 10

1.47 ГБ

В этой теме нет новых непрочитанных сообщений. Отцы и деды (1982) DVDRip-AVC от ExKinoRay

223 | 9

1.38 ГБ




Вы не можете начинать темы
Вы не можете отвечать на сообщения
Вы не можете редактировать свои сообщения
Вы не можете удалять свои сообщения
Вы не можете добавлять вложения

Перейти:  
Для Мосгорсуда, Роскомнадзора и рекламодателей: mosgorsud-torrent[собачка]yandex.ru
 Вход
ppkBB3cker v.2 © 2008-2014 @ PPK
[ Time : 0.037s | 15 Queries | GZIP : Off ]

cron