img image001 image001 image001 image001 image001 image001 image001 image001 image001 image001 image001 image001 image001 image001 image001

Planets Sun Sun Sun
Статистика раздачи
Автор: Nickolas3434 | Размер: 1.83 ГБ | Добавлен: 08 май 2016
Раздают: 424    Качают: 3
Скачать торрент
Скачать торрент
Описание торрента

СообщениеДобавлено: 08 май 2016 


Информация о фильме
Название: Баллада о доблестном рыцаре Айвенго
Год выхода: 1982
Жанр: Приключения, исторический
Режиссер: Сергей Тарасов
В ролях: Борис Хмельницкий, Григорий Лямпе, Виктор Андриенко, Николай Дупак, Витаутас Томкус, Петерис Гаудыньш, Тамара Акулова, Леонид Кулагин, Альгимантас Масюлис, Борис Химичев, Александр Филиппенко, Майя Булгакова, Юрий Смирнов, Ромуальд Анцанс
О фильме:
Баллада о доблестном рыцаре Айвенго - это одна из величайших приключенческих историй всех времен. Рыцарь Айвенго возвращается с крестового похода и пытается восстановить свою честь, права на свое наследство и добиться руки своей возлюбленной. Эта историко-приключенческая сага о благородном рыцаре, который оказывается вовлеченным в яростную борьбу за англиийский трон между принцем Джоном и его братом королем Ричардом Львиное Сердце. По мотивам романа Вальтера Скотта "Айвенго".
Страна: СССР / Мосфильм
Продолжительность: 01:27:19
Перевод: не требуется
Файл
Кодек: x264
Качество: DVDRip-AVC
Видео: MPEG-4 AVC, 2650 Кбит/с, 686x446@732x446
Звук: Pусский (AC3, 2 ch, 160 Кбит/с), (AC3, 2 ch, 192 Кбит/с)

Звук в исходнике с пространственным эффектом, добавлена дорожка от TVRip, идёт первой.

raw [info]: 686x446p 16:15 @ 25/1 fps (cfr)
x264 [info]: using SAR=16/15
x264 [info]: using cpu capabilities: MMX2 SSE2Fast SSSE3 SSE4.2 AVX
x264 [info]: profile High, level 4.1
x264 [info]: frame I:886 Avg QP:16.87 size: 67447
x264 [info]: frame P:34245 Avg QP:20.19 size: 29107
x264 [info]: frame B:95828 Avg QP:21.83 size: 7084
==============================================================================
Общее
Уникальный идентификатор : 235622605389202318387675998348005842171 (0xB143435C721CB18A9C28B6EDE28F9CFB)
Полное имя : D:Баллада о доблестном рыцаре Айвенго_1982-DVDRip-AVC.mkv
Формат : Matroska
Версия формата : Version 2
Размер файла : 1,83 Гбайт
Продолжительность : 1 ч. 27 м.
Общий поток : 3004 Кбит/сек
Дата кодирования : UTC 2016-05-05 02:55:41
Программа кодирования : mkvmerge v5.8.0 ('No Sleep / Pillow') built on Sep 2 2012 15:37:04
Библиотека кодирования : libebml v1.2.3 + libmatroska v1.3.0
Видео
Идентификатор : 1
Формат : AVC
Формат/Информация : Advanced Video Codec
Профиль формата : High@L4.1
Параметр CABAC формата : Да
Параметр ReFrames формата : 14 кадров
Идентификатор кодека : V_MPEG4/ISO/AVC
Продолжительность : 1 ч. 27 м.
Битрейт : 2650 Кбит/сек
Ширина : 686 пикселей
Высота : 446 пикселей
Соотношение сторон : 16:10
Режим частоты кадров : Постоянный
Частота кадров : 25,000 кадров/сек
Цветовое пространство : YUV
Субдискретизация насыщенности : 4:2:0
Битовая глубина : 8 бит
Тип развёртки : Прогрессивная
Бит/(Пиксели*Кадры) : 0.346
Размер потока : 1,58 Гбайт (86%)
Библиотека кодирования : x264 core 148 r2638 7599210
Настройки программы : cabac=1 / ref=14 / deblock=1:-2:-2 / analyse=0x3:0x133 / me=umh / subme=10 / psy=1 / psy_rd=0.75:0.10 / mixed_ref=1 / me_range=32 / chroma_me=1 / trellis=2 / 8x8dct=1 / cqm=0 / deadzone=21,11 / fast_pskip=0 / chroma_qp_offset=-3 / threads=12 / lookahead_threads=2 / sliced_threads=0 / nr=0 / decimate=0 / interlaced=0 / bluray_compat=0 / constrained_intra=0 / bframes=8 / b_pyramid=2 / b_adapt=2 / b_bias=0 / direct=3 / weightb=1 / open_gop=0 / weightp=2 / keyint=250 / keyint_min=25 / scenecut=40 / intra_refresh=0 / rc=2pass / mbtree=0 / bitrate=2650 / ratetol=1.0 / qcomp=0.63 / qpmin=0 / qpmax=39 / qpstep=4 / cplxblur=20.0 / qblur=0.5 / ip_ratio=1.40 / pb_ratio=1.30 / aq=1:0.60
Язык : English
Default : Да
Forced : Нет
Цветовой диапазон : Limited
Основные цвета : BT.601 PAL
Характеристики трансфера : BT.470 System B, BT.470 System G
Коэффициенты матрицы : BT.601
Аудио #1
Идентификатор : 2
Формат : AC-3
Формат/Информация : Audio Coding 3
Расширение режима : CM (complete main)
Параметр Endianness формата : Big
Идентификатор кодека : A_AC3
Продолжительность : 1 ч. 27 м.
Вид битрейта : Постоянный
Битрейт : 160 Кбит/сек
Каналы : 2 канала
Расположение каналов : Front: L R
Частота : 48,0 КГц
Метод сжатия : С потерями
Размер потока : 99,9 Мбайт (5%)
Заголовок : от TVRip
Язык : Russian
Default : Да
Forced : Нет
Аудио #2
Идентификатор : 3
Формат : AC-3
Формат/Информация : Audio Coding 3
Расширение режима : CM (complete main)
Параметр Endianness формата : Big
Идентификатор кодека : A_AC3
Продолжительность : 1 ч. 27 м.
Вид битрейта : Постоянный
Битрейт : 192 Кбит/сек
Каналы : 2 канала
Расположение каналов : Front: L R
Частота : 48,0 КГц
Метод сжатия : С потерями
Размер потока : 120 Мбайт (6%)
Язык : Russian
Default : Нет
Forced : Нет
Меню
00:00:00.000 : ru:Chapter 1
00:31:58.040 : ru:Chapter 2
00:36:56.520 : ru:Chapter 3
00:45:25.640 : ru:Chapter 4
00:49:20.960 : ru:Chapter 5
01:01:03.760 : ru:Chapter 6
01:27:18.320 : ru:Chapter 7

Релиз от:
Автор релиза:



   Похожие торренты   Торрент   Размер 
В этой теме нет новых непрочитанных сообщений. Баллада о доблестном рыцаре Айвенго (1982) DVDRip

171 | 8

1.96 ГБ

В этой теме нет новых непрочитанных сообщений. Баллада о доблестном рыцаре Айвенго (1982) DVDRip

271 | 17

1.67 ГБ

В этой теме нет новых непрочитанных сообщений. Айвенго / Ivanhoe (1982) DVDRip | P2

115 | 11

1.45 ГБ

В этой теме нет новых непрочитанных сообщений. Айвенго / Ivanhoe (1982) DVDRip от NovaLan

278 | 3

2.18 ГБ

В этой теме нет новых непрочитанных сообщений. Айвенго / Ivanhoe [S01] (1997) DVDRip | P

98 | 51

4.1 ГБ

В этой теме нет новых непрочитанных сообщений. Айвенго / Ivanhoe (1952) DVDRip

62 | 3

1.46 ГБ

В этой теме нет новых непрочитанных сообщений. Легенда о рыцаре / El Cid: La leyenda (2003) DVDRip

36 | 11

1.37 ГБ




Вы не можете начинать темы
Вы не можете отвечать на сообщения
Вы не можете редактировать свои сообщения
Вы не можете удалять свои сообщения
Вы не можете добавлять вложения

Перейти:  
Для Мосгорсуда, Роскомнадзора и рекламодателей: mosgorsud-torrent[собачка]yandex.ru
 Вход
ppkBB3cker v.2 © 2008-2014 @ PPK
[ Time : 0.050s | 14 Queries | GZIP : On ]

Торрент трекер RUTOR.IN, Не можете зайти на rutor.org? Какой новый адрес рутор? Какое зеркало рутор? Не работает rutor.org и зеркала? Тогда наш торрент специально для вас. Rutor.in неофициальное зеркало rutor. В случае если у Вас заблокирован rutor или вдруг Вы не можете на него зайти, то Вы без труда сможете скачать бесплатно и без рекламы последние новинки кино, игр, сериалов и прочего у нас, на Rutor.in. Не нужно использовать прокси, чтобы зайти на рутор, достаточно воспользоваться нашим ресурсом. Все новые фильмы, игры, сериалы, книги и музыка за 2013 и 2014 годы через торрент бесплатно. Скачивайте фильмы в хорошем качестве, игры для пк, xbox, playstation без регистрации. У нас вы найдете новые Зарубежные сериалы и Русские сериалы 2013, 2014, 2015 годов. Оставайтесь с нами, качайте любимые фильмы, игры, сериалы, книги и музыку.