img image001 image001 image001 image001 image001 image001 image001 image001 image001 image001 image001 image001 image001 image001 image001

Planets Sun Sun Sun
Статистика раздачи
Автор: Nickolas3434 | Размер: 1.54 ГБ | Добавлен: 08 май 2016
Раздают: 92    Качают: 2
Скачать торрент
Скачать торрент
Описание торрента

СообщениеДобавлено: 08 май 2016 


Информация о фильме
Название: Любовник
Год выхода: 2002
Жанр: Драма
Режиссер: Валерий Тодоровский
В ролях: Олег Янковский, Сергей Гармаш, Вера Воронкова, Евгений Косырев, Андрей Смирнов, Галина Кашковская, Юлия Рытикова, Елена Ласковая, Александр Лукаш, Владимир Юматов, Валерий Прохоров, Ирина Соколова, Алексей Колокольцев, Зинаида Зубкова, Ирина Карташёва, Ольга Нефёдова, Тамара Миронова, Зинаида Пасютина, Ольга Клебанович, Виктория Маслова
О фильме:
Внезапная смерть жены и случайно найдённое письмо становятся причиной неприятного открытия - оказывается, у вполне благополучной семейной жизни была изнанка. И всё, что теперь занимает главного героя - выяснение подробностей...как, почему и зачем внешне счастливая женщина изменяла на протяжении всех лет совместной жизни. Ответа, кстати, нет. Как это всё-таки по-русски - пить водку с любовником своей жены, пусть даже умершей! Весь фильм и держится на этой связи двух оскорблённых друг другом и самой жизнью мужчин. И ведь некого спросить, некого заставить ответить, но можно забыть, похоронить, но нет - смысл жизни в поиске никому не нужной истины, и в этом поиске оба выглядят жалко и недостойно.
Страна: Россия, Рекун-Кино
Продолжительность: 01:37:51
Перевод: не требуется
Файл
Кодек: x264
Качество: SATRip-AVC
Видео: MPEG-4, 2000 Кбит/с, 700x460@746x460
Звук: АС3, 2 ch, 256 Кбит/с

raw [info]: 700x460p 16:15 @ 25/1 fps (cfr)
x264 [info]: using SAR=16/15
x264 [info]: using cpu capabilities: MMX2 SSE2Fast SSSE3 SSE4.2 AVX
x264 [info]: profile High, level 4.1
x264 [info]: frame I:737 Avg QP:15.00 size: 65527
x264 [info]: frame P:31045 Avg QP:18.27 size: 25047
x264 [info]: frame B:115001 Avg QP:20.38 size: 5583
=========================================================================
Общее
Уникальный идентификатор : 183575689156646238476753263845457247720 (0x8A1B644531E6D600AEBD2D98174FBDE8)
Полное имя : D:Любовник_2002-SATRip-AVC.mkv
Формат : Matroska
Версия формата : Version 2
Размер файла : 1,54 Гбайт
Продолжительность : 1 ч. 37 м.
Общий поток : 2258 Кбит/сек
Дата кодирования : UTC 2016-05-03 18:42:25
Программа кодирования : mkvmerge v5.8.0 ('No Sleep / Pillow') built on Sep 2 2012 15:37:04
Библиотека кодирования : libebml v1.2.3 + libmatroska v1.3.0
Видео
Идентификатор : 1
Формат : AVC
Формат/Информация : Advanced Video Codec
Профиль формата : High@L4.1
Параметр CABAC формата : Да
Параметр ReFrames формата : 14 кадров
Идентификатор кодека : V_MPEG4/ISO/AVC
Продолжительность : 1 ч. 37 м.
Битрейт : 2000 Кбит/сек
Ширина : 700 пикселей
Высота : 460 пикселей
Соотношение сторон : 16:10
Соотношение сторон в оригинале : 16:10
Режим частоты кадров : Постоянный
Частота кадров : 25,000 кадров/сек
Цветовое пространство : YUV
Субдискретизация насыщенности : 4:2:0
Битовая глубина : 8 бит
Тип развёртки : Прогрессивная
Бит/(Пиксели*Кадры) : 0.248
Размер потока : 1,34 Гбайт (87%)
Библиотека кодирования : x264 core 148 r2638 7599210
Настройки программы : cabac=1 / ref=14 / deblock=1:-2:-2 / analyse=0x3:0x133 / me=umh / subme=10 / psy=1 / psy_rd=1.05:0.15 / mixed_ref=1 / me_range=32 / chroma_me=1 / trellis=2 / 8x8dct=1 / cqm=0 / deadzone=21,11 / fast_pskip=0 / chroma_qp_offset=-3 / threads=12 / lookahead_threads=2 / sliced_threads=0 / nr=0 / decimate=0 / interlaced=0 / bluray_compat=0 / constrained_intra=0 / bframes=9 / b_pyramid=2 / b_adapt=2 / b_bias=0 / direct=3 / weightb=1 / open_gop=0 / weightp=2 / keyint=250 / keyint_min=25 / scenecut=40 / intra_refresh=0 / rc=2pass / mbtree=0 / bitrate=2000 / ratetol=1.0 / qcomp=0.63 / qpmin=0 / qpmax=39 / qpstep=4 / cplxblur=20.0 / qblur=0.5 / ip_ratio=1.40 / pb_ratio=1.30 / aq=1:1.00
Язык : English
Default : Да
Forced : Нет
Цветовой диапазон : Limited
Основные цвета : BT.601 PAL
Характеристики трансфера : BT.470 System B, BT.470 System G
Коэффициенты матрицы : BT.601
Аудио
Идентификатор : 2
Формат : AC-3
Формат/Информация : Audio Coding 3
Расширение режима : CM (complete main)
Параметр Endianness формата : Big
Идентификатор кодека : A_AC3
Продолжительность : 1 ч. 37 м.
Вид битрейта : Постоянный
Битрейт : 256 Кбит/сек
Каналы : 2 канала
Расположение каналов : Front: L R
Частота : 48,0 КГц
Метод сжатия : С потерями
Размер потока : 179 Мбайт (11%)
Язык : Russian
Default : Да
Forced : Нет

Релиз от:
Автор релиза:



   Похожие торренты   Торрент   Размер 
В этой теме нет новых непрочитанных сообщений. Любовник (2002) DVDRip

592 | 9

1.37 ГБ

В этой теме нет новых непрочитанных сообщений. Любовник (2002) DVDRip

270 | 3

1.37 ГБ

В этой теме нет новых непрочитанных сообщений. Демон-любовник / Demonlover (2002) DVDRip от New-Team

50 | 12

745.82 МБ

В этой теме нет новых непрочитанных сообщений. Демон-любовник / Demonlover (2002) DVDRip от Киномагия

0 | 6

1.37 ГБ

В этой теме нет новых непрочитанных сообщений. Демон-любовник / Demonlover (2002) DVDRip от New-Team

234 | 51

1.46 ГБ

В этой теме нет новых непрочитанных сообщений. Любовник / L' Amant (2004) DVDRip от ExKinoRay

54 | 31

1.52 ГБ

В этой теме нет новых непрочитанных сообщений. Любовник для Люси (2012) SATRip от КинозалSAT

9 | 3

700.04 МБ




Вы не можете начинать темы
Вы не можете отвечать на сообщения
Вы не можете редактировать свои сообщения
Вы не можете удалять свои сообщения
Вы не можете добавлять вложения

Перейти:  
Для Мосгорсуда, Роскомнадзора и рекламодателей: mosgorsud-torrent[собачка]yandex.ru
 Вход
ppkBB3cker v.2 © 2008-2014 @ PPK
[ Time : 0.073s | 14 Queries | GZIP : Off ]

Торрент трекер RUTOR.IN, Не можете зайти на rutor.org? Какой новый адрес рутор? Какое зеркало рутор? Не работает rutor.org и зеркала? Тогда наш торрент специально для вас. Rutor.in неофициальное зеркало rutor. В случае если у Вас заблокирован rutor или вдруг Вы не можете на него зайти, то Вы без труда сможете скачать бесплатно и без рекламы последние новинки кино, игр, сериалов и прочего у нас, на Rutor.in. Не нужно использовать прокси, чтобы зайти на рутор, достаточно воспользоваться нашим ресурсом. Все новые фильмы, игры, сериалы, книги и музыка за 2013 и 2014 годы через торрент бесплатно. Скачивайте фильмы в хорошем качестве, игры для пк, xbox, playstation без регистрации. У нас вы найдете новые Зарубежные сериалы и Русские сериалы 2013, 2014, 2015 годов. Оставайтесь с нами, качайте любимые фильмы, игры, сериалы, книги и музыку.