img image001 image001 image001 image001 image001 image001 image001 image001 image001 image001 image001 image001 image001 image001 image001

Planets Sun Sun Sun
Статистика раздачи
Автор: Nickolas3434 | Размер: 742.52 МБ | Добавлен: 08 май 2016
Раздают: 173    Качают: 11
Скачать торрент
Скачать торрент
Описание торрента

СообщениеДобавлено: 08 май 2016 

Он – дракон
«Любить страшно»


Страна: Россия
Жанр: фэнтези
Год выпуска: 2015
Продолжительность: 01:47:04
Перевод: Не требуется (русский) [Лицензия BD RUS]
Cубтитры: нет
Режиссер: Индар Джендубаев
В ролях: Мария Поезжаева, Матвей Лыков, Станислав Любшин, Иева Андреевайте, Петр Романов, Андрей Лебединский, Марта Тимофеева, Иво Господинов, Егор Зубарчук, Виктория Рунцова, Анастасия Дубровина, Алена Чехова
Описание:
В разгар свадьбы княжну Мирославу похищает дракон, унося в свой замок на острове. В прошлом остались родные, жених, теперь только каменный плен в компании прекрасного Армана... но кто он и как оказался на острове? Мира поймет это слишком поздно: любовь к нему, человеку-дракону, откроет ей горькую истину - любить страшно.

Релиз:
Автор рипа: Stalker oK
Сэмпл
Качество видео: BDRip-AVC [HDCLUB / Blu-ray Disc / 1080p]
Формат видео: MKV
Видео кодек: AVC
Аудио кодек: AAC
Видео: 908 Кбит/сек, 814*346 (2,35:1), в 24,000 кадра/сек, AVC
Аудио: русский, 64,0 Кбит/сек, 48,0 КГц / 24,0 КГц, 2 канала, AAC (HE-AAC / LC)
Навигация по главам: есть

Общее
Уникальный идентификатор : 200341833860604238906701731273389382561 (0x96B86F069B4B83FD93FA2FF2EAD01BA1)
Полное имя : M:RipsON_DRAKONOn-drakon.2015.BDRip-AVC.745Mb.stalkerok.new-team.mkv
Формат : Matroska
Версия формата : Version 4 / Version 2
Размер файла : 743 Мбайт
Продолжительность : 1 ч. 47 м.
Общий поток : 970 Кбит/сек
Название фильма : Он – дракон (2015) (New-Team) (Rip by Stalker oK)
Дата кодирования : UTC 2016-05-06 16:07:38
Программа кодирования : mkvmerge v8.6.1 ('Flying') 64bit
Библиотека кодирования : libebml v1.3.3 + libmatroska v1.4.4
Видео
Идентификатор : 1
Формат : AVC
Формат/Информация : Advanced Video Codec
Профиль формата : High@L4.1
Параметр CABAC формата : Да
Параметр ReFrames формата : 16 кадров
Идентификатор кодека : V_MPEG4/ISO/AVC
Продолжительность : 1 ч. 47 м.
Битрейт : 908 Кбит/сек
Ширина : 814 пикселей
Высота : 346 пикселей
Соотношение сторон : 2,35:1
Режим частоты кадров : Постоянный
Частота кадров : 24,000 кадра/сек
Цветовое пространство : YUV
Субдискретизация насыщенности : 4:2:0
Битовая глубина : 8 бит
Тип развёртки : Прогрессивная
Бит/(Пиксели*Кадры) : 0.134
Размер потока : 692 Мбайт (93%)
Заголовок : Он – дракон (2015) (New-Team) (Rip by Stalker oK)
Библиотека кодирования : x264 core 148 r2665kMod a01e339
Настройки программы : cabac=1 / ref=16 / deblock=1:-3:-3 / analyse=0x3:0x133 / me=umh / subme=11 / psy=1 / fade_compensate=0.00 / psy_rd=1.00:0.10 / mixed_ref=1 / me_range=48 / chroma_me=1 / trellis=2 / 8x8dct=1 / cqm=0 / deadzone=21,11 / fast_pskip=0 / chroma_qp_offset=-3 / threads=11 / lookahead_threads=2 / sliced_threads=0 / nr=0 / decimate=0 / interlaced=0 / bluray_compat=0 / constrained_intra=0 / fgo=0 / bframes=16 / b_pyramid=2 / b_adapt=2 / b_bias=0 / direct=3 / weightb=1 / open_gop=0 / weightp=2 / keyint=240 / keyint_min=23 / scenecut=40 / intra_refresh=0 / rc_lookahead=60 / rc=2pass / mbtree=0 / bitrate=908 / ratetol=1.0 / qcomp=0.70 / qpmin=0 / qpmax=69 / qpstep=4 / cplxblur=20.0 / qblur=0.5 / vbv_maxrate=50000 / vbv_bufsize=62500 / nal_hrd=none / filler=0 / ip_ratio=1.40 / pb_ratio=1.30 / aq=3:1.00
Default : Да
Forced : Нет
Аудио
Идентификатор : 2
Формат : AAC
Формат/Информация : Advanced Audio Codec
Профиль формата : HE-AAC / LC
Идентификатор кодека : A_AAC
Продолжительность : 1 ч. 47 м.
Битрейт : 64,0 Кбит/сек
Каналы : 2 канала
Расположение каналов : Front: L R
Частота : 48,0 КГц / 24,0 КГц
Частота кадров : 23,438 кадра/сек (1024 spf)
Метод сжатия : С потерями
Задержка видео : 31 мс.
Размер потока : 49,0 Мбайт (7%)
Язык : Russian
Default : Да
Forced : Нет
Меню
00:00:00.000 : en:Chapter 1
00:08:32.041 : en:Chapter 2
00:17:11.583 : en:Chapter 3
00:26:33.875 : en:Chapter 4
00:30:51.333 : en:Chapter 5
00:42:29.916 : en:Chapter 6
00:53:36.041 : en:Chapter 7
01:03:58.083 : en:Chapter 8
01:09:32.166 : en:Chapter 9
01:15:17.750 : en:Chapter 10
01:21:58.833 : en:Chapter 11
01:35:46.000 : en:Chapter 12





   Похожие торренты   Торрент   Размер 
В этой теме нет новых непрочитанных сообщений. Он – дракон (2015) BDRip-AVC от New-Team | Лицензия

673 | 38

1.44 ГБ

В этой теме нет новых непрочитанных сообщений. Корона и дракон / The Crown and the Dragon (2013) BDRip от New-Team | P | лицензия

1251 | 272

1.46 ГБ

В этой теме нет новых непрочитанных сообщений. Корона и дракон / The Crown and the Dragon (2013) BDRip-AVC от New-Team | P | лицензия

454 | 143

2.17 ГБ

В этой теме нет новых непрочитанных сообщений. Корона и дракон / The Crown and the Dragon (2013) BDRip 720p от New-Team | P | лицензия

384 | 164

4.95 ГБ

В этой теме нет новых непрочитанных сообщений. Корона и дракон / The Crown and the Dragon (2013) BDRip 1080p от New-Team | P | лицензия

93 | 46

9.53 ГБ

В этой теме нет новых непрочитанных сообщений. Пит и его дракон / Pete's Dragon (2016) BDRip 1080p от New-Team & qqss44 | Лицензия

173 | 10

5.76 ГБ

В этой теме нет новых непрочитанных сообщений. Он – дракон (2015) BDRip | Лицензия

640 | 63

743.27 МБ




Вы не можете начинать темы
Вы не можете отвечать на сообщения
Вы не можете редактировать свои сообщения
Вы не можете удалять свои сообщения
Вы не можете добавлять вложения

Перейти:  
Для Мосгорсуда, Роскомнадзора и рекламодателей: mosgorsud-torrent[собачка]yandex.ru
 Вход
ppkBB3cker v.2 © 2008-2014 @ PPK
[ Time : 0.089s | 18 Queries | GZIP : Off ]

Торрент трекер RUTOR.IN, Не можете зайти на rutor.org? Какой новый адрес рутор? Какое зеркало рутор? Не работает rutor.org и зеркала? Тогда наш торрент специально для вас. Rutor.in неофициальное зеркало rutor. В случае если у Вас заблокирован rutor или вдруг Вы не можете на него зайти, то Вы без труда сможете скачать бесплатно и без рекламы последние новинки кино, игр, сериалов и прочего у нас, на Rutor.in. Не нужно использовать прокси, чтобы зайти на рутор, достаточно воспользоваться нашим ресурсом. Все новые фильмы, игры, сериалы, книги и музыка за 2013 и 2014 годы через торрент бесплатно. Скачивайте фильмы в хорошем качестве, игры для пк, xbox, playstation без регистрации. У нас вы найдете новые Зарубежные сериалы и Русские сериалы 2013, 2014, 2015 годов. Оставайтесь с нами, качайте любимые фильмы, игры, сериалы, книги и музыку.