img image001 image001 image001 image001 image001 image001 image001 image001 image001 image001 image001 image001 image001 image001 image001

Planets Sun Sun Sun
Статистика раздачи
Автор: Nickolas3434 | Размер: 2.43 ГБ | Добавлен: 10 май 2016
Раздают: 76    Качают: 1
Скачать торрент
Скачать торрент
Описание торрента

СообщениеДобавлено: 10 май 2016 


Производство: Россия / Рен Фильм
Жанр: Триллер, Драма, Детектив
Режиссер: Андрей Звягинцев
Актеры: Константин Лавроненко, Владимир Гарин, Иван Добронравов, Наталия Вдовина, Елизавета Александрова, Лазарь Дубовик, Любовь Казакова, Алексей Сукновалов, Андрей Сумин
Описание: В жизни двух братьев неожиданно возникает отец, знакомый им только по фотографии десятилетней давности. Появление странного, чужого для них человека переворачивает их жизнь, когда отец вырывает ребят из привычного существования в тихом родном городе и привозит на заброшенный остров…

Продолжительность: 01:50:23
Качество видео: BDRip-AVC
Видео: MPEG-4 AVC/H.264, 2700 Kbps, 1024x554
Аудио: AC3 5.1, 448 Kbps, 48.0 KHz
Общее
Полное имя : Возвращение.mkv
Формат : Matroska
Версия формата : Version 1
Размер файла : 2,43 Гбайт
Продолжительность : 1 ч. 50 м.
Общий поток : 3148 Кбит/сек
Дата кодирования : UTC 2015-11-29 04:06:56
Программа кодирования : mkvmerge v2.4.1 ('Use Me') built on Dec 5 2008 18:30:05
Библиотека кодирования : libebml v0.7.7 + libmatroska v0.8.1
Видео
Идентификатор : 1
Формат : AVC
Формат/Информация : Advanced Video Codec
Профиль формата : High@L4.1
Параметр CABAC формата : Да
Параметр ReFrames формата : 10 кадров
Идентификатор кодека : V_MPEG4/ISO/AVC
Продолжительность : 1 ч. 50 м.
Битрейт : 2700 Кбит/сек
Ширина : 1024 пикселя
Высота : 554 пикселя
Соотношение сторон : 1,85:1
Режим частоты кадров : Постоянный
Частота кадров : 23,976 кадра/сек
Цветовое пространство : YUV
Субдискретизация насыщенности : 4:2:0
Битовая глубина : 8 бит
Тип развёртки : Прогрессивная
Бит/(Пиксели*Кадры) : 0.199
Размер потока : 2,03 Гбайт (84%)
Заголовок : Возвращение (2003)
Библиотека кодирования : x264 core 146 r2538 121396c
Настройки программы : cabac=1 / ref=10 / deblock=1:-3:-3 / analyse=0x3:0x133 / me=umh / subme=10 / psy=1 / psy_rd=1.00:0.10 / mixed_ref=1 / me_range=48 / chroma_me=1 / trellis=2 / 8x8dct=1 / cqm=0 / deadzone=21,11 / fast_pskip=0 / chroma_qp_offset=-3 / threads=6 / lookahead_threads=1 / sliced_threads=0 / nr=0 / decimate=1 / interlaced=0 / bluray_compat=0 / constrained_intra=0 / bframes=5 / b_pyramid=2 / b_adapt=2 / b_bias=0 / direct=3 / weightb=1 / open_gop=0 / weightp=2 / keyint=240 / keyint_min=22 / scenecut=40 / intra_refresh=0 / rc_lookahead=40 / rc=2pass / mbtree=1 / bitrate=2700 / ratetol=1.0 / qcomp=0.60 / qpmin=10 / qpmax=51 / qpstep=4 / cplxblur=20.0 / qblur=0.5 / ip_ratio=1.40 / aq=1:1.00
Язык : Russian
Default : Да
Forced : Нет
Аудио
Идентификатор : 2
Формат : AC-3
Формат/Информация : Audio Coding 3
Расширение режима : CM (complete main)
Параметр Endianness формата : Big
Идентификатор кодека : A_AC3
Продолжительность : 1 ч. 50 м.
Вид битрейта : Постоянный
Битрейт : 448 Кбит/сек
Каналы : 6 каналов
Расположение каналов : Front: L C R, Side: L R, LFE
Частота : 48,0 КГц
Метод сжатия : С потерями
Размер потока : 354 Мбайт (14%)
Заголовок : AC3 (Оригинал)
Язык : Russian
Default : Да
Forced : Нет

» Фильм снимали в Ленинградской области: в Выборге, Приозерске и Зеленогорске.

Скриншоты:




   Похожие торренты   Торрент   Размер 
В этой теме нет новых непрочитанных сообщений. Возвращение (2003) BDRip 720p | Restored version

115 | 7

4.37 ГБ

В этой теме нет новых непрочитанных сообщений. Возвращение (2003) BDRip 720p | Restored version

205 | 10

8.37 ГБ

В этой теме нет новых непрочитанных сообщений. Возвращение (2003) BDRip 1080p от HDReactor | Restored version

25 | 9

11.62 ГБ

В этой теме нет новых непрочитанных сообщений. Возвращение (2003) Blu-Ray | Restored version

18 | 9

22.18 ГБ

В этой теме нет новых непрочитанных сообщений. Возвращение (2003) BDRemux | Restored version

9 | 3

21.25 ГБ

В этой теме нет новых непрочитанных сообщений. Возвращение (2003) HDRip от MegaPeer | Restored version

15 | 2

1.45 ГБ

В этой теме нет новых непрочитанных сообщений. Возвращение (2003) HDRip от Scarabey | Restored version

103 | 7

1.45 ГБ




Вы не можете начинать темы
Вы не можете отвечать на сообщения
Вы не можете редактировать свои сообщения
Вы не можете удалять свои сообщения
Вы не можете добавлять вложения

Перейти:  
Для Мосгорсуда, Роскомнадзора и рекламодателей: mosgorsud-torrent[собачка]yandex.ru
 Вход
ppkBB3cker v.2 © 2008-2014 @ PPK
[ Time : 0.038s | 17 Queries | GZIP : Off ]

cron