img image001 image001 image001 image001 image001 image001 image001 image001 image001 image001 image001 image001 image001 image001 image001

Planets Sun Sun Sun
Статистика раздачи
Автор: Nickolas3434 | Размер: 1.95 ГБ | Добавлен: 10 май 2016
Раздают: 17    Качают: 0
Скачать торрент
Скачать торрент
Описание торрента

СообщениеДобавлено: 10 май 2016 


Информация о фильме
Название: Сочинение ко Дню Победы
Год выхода: 1998
Жанр: Драма, комедия
Режиссер: Сергей Урсуляк
В ролях: Михаил Ульянов, Вячеслав Тихонов, Олег Ефремов, Сергей Баталов, Владимир Ильин, Роман Мадянов, Сергей Маковецкий, Владимир Машков, Геннадий Назаров, Сергей Никоненко, Игорь Регнер, Зинаида Шарко, Ольга Сидорова, Любовь Соколова, Анатолий Соловьёв, Зоя Василькова, Сергей Дорогов, Александр Корженков, Дарья Урсуляк, Олег Кассин, Игорь Юраш
О фильме:
В Москве, накануне празднования Дня Победы, встречаются три старых фронтовых друга. Но посидеть и вспомнить забытые подвиги не получается. Директора спортивного клуба Киловатова обвиняют в связях с преступным миром и упекают за решетку. Проживающий за рубежом бывший диссидент Моргулис и завсегдатай оппозиционных митингов Дьяков организовывают побег другу из тюрьмы. Убедившись в "крутизне" своих врагов, заказавших арест фронтовому товарищу, герои подключают к операции освобождения мафию и ФСБ, а затем решаются на угон самолета...
Страна: Россия, Киностудия им. М. Горького
Продолжительность: 01:47:07
Перевод: не требуется
Файл
Кодек: x264
Качество: DVDRip-AVC
Видео: MPEG-4, 2150 Кбит/с, 704x572@750x572
Звук: AC3, 6 ch, 448 Кбит/с

raw [info]: 704x572p 16:15 @ 25/1 fps (cfr)
x264 [info]: using SAR=16/15
x264 [info]: using cpu capabilities: MMX2 SSE2Fast SSSE3 SSE4.2 AVX
x264 [info]: profile High, level 4.1
x264 [info]: frame I:1120 Avg QP:14.99 size: 73926
x264 [info]: frame P:35780 Avg QP:18.32 size: 25347
x264 [info]: frame B:123782 Avg QP:21.00 size: 5962
=====================================================================================================================
Общее
Уникальный идентификатор : 192881268402768740980313888940525942759 (0x911B94BFE0CF30658DEBB334B048F7E7)
Полное имя : D:Сочинение ко Дню Победы_1998-DVDRip-AVC.mkv
Формат : Matroska
Версия формата : Version 2
Размер файла : 1,95 Гбайт
Продолжительность : 1 ч. 47 м.
Общий поток : 2600 Кбит/сек
Дата кодирования : UTC 2016-04-24 21:30:51
Программа кодирования : mkvmerge v5.8.0 ('No Sleep / Pillow') built on Sep 2 2012 15:37:04
Библиотека кодирования : libebml v1.2.3 + libmatroska v1.3.0
Видео
Идентификатор : 1
Формат : AVC
Формат/Информация : Advanced Video Codec
Профиль формата : High@L4.1
Параметр CABAC формата : Да
Параметр ReFrames формата : 15 кадров
Идентификатор кодека : V_MPEG4/ISO/AVC
Продолжительность : 1 ч. 47 м.
Битрейт : 2150 Кбит/сек
Ширина : 704 пикселя
Высота : 572 пикселя
Соотношение сторон : 4:3
Соотношение сторон в оригинале : 4:3
Режим частоты кадров : Постоянный
Частота кадров : 25,000 кадров/сек
Цветовое пространство : YUV
Субдискретизация насыщенности : 4:2:0
Битовая глубина : 8 бит
Тип развёртки : Прогрессивная
Бит/(Пиксели*Кадры) : 0.214
Размер потока : 1,57 Гбайт (81%)
Библиотека кодирования : x264 core 148 r2638 7599210
Настройки программы : cabac=1 / ref=15 / deblock=1:-2:-2 / analyse=0x3:0x133 / me=umh / subme=10 / psy=1 / psy_rd=1.05:0.15 / mixed_ref=1 / me_range=32 / chroma_me=1 / trellis=2 / 8x8dct=1 / cqm=0 / deadzone=21,11 / fast_pskip=0 / chroma_qp_offset=-3 / threads=12 / lookahead_threads=3 / sliced_threads=0 / nr=0 / decimate=0 / interlaced=0 / bluray_compat=0 / constrained_intra=0 / bframes=10 / b_pyramid=2 / b_adapt=2 / b_bias=0 / direct=3 / weightb=1 / open_gop=0 / weightp=2 / keyint=250 / keyint_min=25 / scenecut=40 / intra_refresh=0 / rc=2pass / mbtree=0 / bitrate=2150 / ratetol=1.0 / qcomp=0.63 / qpmin=0 / qpmax=39 / qpstep=4 / cplxblur=20.0 / qblur=0.5 / ip_ratio=1.40 / pb_ratio=1.30 / aq=1:1.00
Язык : English
Default : Да
Forced : Нет
Цветовой диапазон : Limited
Основные цвета : BT.601 PAL
Характеристики трансфера : BT.470 System B, BT.470 System G
Коэффициенты матрицы : BT.601
Аудио
Идентификатор : 2
Формат : AC-3
Формат/Информация : Audio Coding 3
Расширение режима : CM (complete main)
Параметр Endianness формата : Big
Идентификатор кодека : A_AC3
Продолжительность : 1 ч. 47 м.
Вид битрейта : Постоянный
Битрейт : 448 Кбит/сек
Каналы : 6 каналов
Расположение каналов : Front: L C R, Side: L R, LFE
Частота : 48,0 КГц
Метод сжатия : С потерями
Размер потока : 343 Мбайт (17%)
Язык : Russian
Default : Да
Forced : Нет
Меню
00:00:00.000 : ru:Chapter 1
00:04:19.200 : ru:Chapter 2
00:09:29.600 : ru:Chapter 3
00:15:05.280 : ru:Chapter 4
00:22:56.960 : ru:Chapter 5
00:31:19.840 : ru:Chapter 6
00:35:45.280 : ru:Chapter 7
00:41:45.120 : ru:Chapter 8
00:46:59.360 : ru:Chapter 9
00:56:55.840 : ru:Chapter 10
01:01:18.560 : ru:Chapter 11
01:08:24.640 : ru:Chapter 12
01:12:07.840 : ru:Chapter 13
01:16:15.520 : ru:Chapter 14
01:19:12.480 : ru:Chapter 15
01:26:00.000 : ru:Chapter 16
01:33:34.560 : ru:Chapter 17
01:35:57.440 : ru:Chapter 18
01:37:52.800 : ru:Chapter 19
01:44:01.600 : ru:Chapter 20

Релиз от:
Автор релиза:



   Похожие торренты   Торрент   Размер 
В этой теме нет новых непрочитанных сообщений. Сочинение ко Дню Победы (1998) DVDRip от ExKinoRay

213 | 13

1.45 ГБ

В этой теме нет новых непрочитанных сообщений. Сочинение ко дню победы (1998) DVD9

3 | 0

7.7 ГБ

В этой теме нет новых непрочитанных сообщений. Парад Победы 24 июня 1945 года. Песни войны и победы (2005) DVDRip

316 | 3

930.86 МБ

В этой теме нет новых непрочитанных сообщений. Я вас любил... (сочинение на вольную тему) (1967) DVDRip

12 | 2

1.37 ГБ

В этой теме нет новых непрочитанных сообщений. Я вас любил... (сочинение на вольную тему) (1967) DVDRip от SilverCinema

91 | 4

698.02 МБ

В этой теме нет новых непрочитанных сообщений. Парад Победы 24 июня 1945 года. Песни войны и победы (2005) DVD5

55 | 3

4.05 ГБ

В этой теме нет новых непрочитанных сообщений. Праздничный концерт, посвящённый Дню Победы (2017) DVB от ExKinoRay

24 | 4

2.11 ГБ




Вы не можете начинать темы
Вы не можете отвечать на сообщения
Вы не можете редактировать свои сообщения
Вы не можете удалять свои сообщения
Вы не можете добавлять вложения

Перейти:  
Для Мосгорсуда, Роскомнадзора и рекламодателей: mosgorsud-torrent[собачка]yandex.ru
 Вход
ppkBB3cker v.2 © 2008-2014 @ PPK
[ Time : 0.032s | 17 Queries | GZIP : Off ]

cron