img image001 image001 image001 image001 image001 image001 image001 image001 image001 image001 image001 image001 image001 image001 image001

Planets Sun Sun Sun
Статистика раздачи
Автор: Nickolas3434 | Размер: 1.47 ГБ | Добавлен: 11 май 2016
Раздают: 32    Качают: 1
Скачать торрент
Скачать торрент
Описание торрента

СообщениеДобавлено: 11 май 2016 


Информация о фильме
Название: Нет неизвестных солдат
Год выхода: 1965
Жанр: Драма, военный
Режиссер: Сергей Бондарчук
В ролях: Наталия Рычагова, Павел Иванов, Юрий Назаров, Светлана Данильченко, Виктор Мирошниченко, Иосиф Лагидзе, Александр Мовчан, Дмитрий Милютенко, Виктор Халатов, Анна Николаева, Виталий Дорошенко, Валерий Рыжаков
О фильме:
По воспоминаниям дважды Героя Советского Союза генерал-полковника А.И.Родимцева (в литературной записи П.Северова). Прообраз героини - юная разведчица Герой Советского Союза Мария Боровиченко. События происходят во время обороны Киева в начале Великой Отечественной войны.
Страна: СССР
Продолжительность: 01:28:29
Перевод: не требуется
Файл
Кодек: x264
Качество: DVDRip-AVC
Видео: MPEG-4 AVC, 2000 Кбит/с, 692x562@738x562
Звук: AC3, 2 ch, 384 Кбит/с

Общее
Уникальный идентификатор : 206863245492103643447256174479378216941 (0x9BA0697188A1A1F3B5FB18734657F7ED)
Полное имя : R:МОИ РИПЫНет неизвестных солдат_1965-DVDRip-AVC.mkv
Формат : Matroska
Версия формата : Version 2
Размер файла : 1,47 Гбайт
Продолжительность : 1 ч. 28 м.
Общий поток : 2386 Кбит/сек
Дата кодирования : UTC 2015-01-29 20:05:34
Программа кодирования : mkvmerge v5.8.0 ('No Sleep / Pillow') built on Sep 2 2012 15:37:04
Библиотека кодирования : libebml v1.2.3 + libmatroska v1.3.0
Видео
Идентификатор : 1
Формат : AVC
Формат/Информация : Advanced Video Codec
Профиль формата : High@L4.1
Параметр CABAC формата : Да
Параметр ReFrames формата : 16 кадров
Идентификатор кодека : V_MPEG4/ISO/AVC
Продолжительность : 1 ч. 28 м.
Битрейт : 2000 Кбит/сек
Ширина : 692 пикселя
Высота : 562 пикселя
Соотношение сторон : 4:3
Режим частоты кадров : Постоянный
Частота кадров : 25,000 кадров/сек
Цветовое пространство : YUV
Субдискретизация насыщенности : 4:2:0
Битовая глубина : 8 бит
Тип развёртки : Прогрессивная
Бит/(Пиксели*Кадры) : 0.206
Размер потока : 1,21 Гбайт (82%)
Библиотека кодирования : x264 core 142 r2431 ac76440
Настройки программы : cabac=1 / ref=16 / deblock=1:-2:-2 / analyse=0x3:0x133 / me=umh / subme=10 / psy=1 / psy_rd=1.03:0.10 / mixed_ref=1 / me_range=32 / chroma_me=1 / trellis=2 / 8x8dct=1 / cqm=0 / deadzone=21,11 / fast_pskip=0 / chroma_qp_offset=-3 / threads=12 / lookahead_threads=3 / sliced_threads=0 / nr=0 / decimate=0 / interlaced=0 / bluray_compat=0 / constrained_intra=0 / bframes=10 / b_pyramid=2 / b_adapt=2 / b_bias=0 / direct=3 / weightb=1 / open_gop=0 / weightp=2 / keyint=250 / keyint_min=25 / scenecut=40 / intra_refresh=0 / rc=2pass / mbtree=0 / bitrate=2000 / ratetol=1.0 / qcomp=0.60 / qpmin=0 / qpmax=39 / qpstep=4 / cplxblur=20.0 / qblur=0.5 / ip_ratio=1.40 / pb_ratio=1.30 / aq=1:0.90
Язык : English
Default : Да
Forced : Нет
Цветовой диапазон : Limited
Основные цвета : BT.601 PAL
Характеристики трансфера : BT.470 System B, BT.470 System G
Коэффициенты матрицы : BT.601
Аудио
Идентификатор : 2
Формат : AC-3
Формат/Информация : Audio Coding 3
Расширение режима : CM (complete main)
Параметр Endianness формата : Big
Идентификатор кодека : A_AC3
Продолжительность : 1 ч. 28 м.
Вид битрейта : Постоянный
Битрейт : 384 Кбит/сек
Каналы : 2 канала
Расположение каналов : Front: L R
Частота : 48,0 КГц
Метод сжатия : С потерями
Размер потока : 243 Мбайт (16%)
Язык : Russian
Default : Да
Forced : Нет

Релиз от:
Автор релиза:



   Похожие торренты   Торрент   Размер 
В этой теме нет новых непрочитанных сообщений. Нет неизвестных солдат (1965) DVDRip от ExKinoRay

15 | 12

1.37 ГБ

В этой теме нет новых непрочитанных сообщений. На Киевском направлении / Нет неизвестных солдат (1965 - 1968) DVD5

26 | 26

4.36 ГБ

В этой теме нет новых непрочитанных сообщений. Неизвестный солдат (1984) DVDRip-AVC от ExKinoRay

80 | 5

3.66 ГБ

В этой теме нет новых непрочитанных сообщений. Девять неизвестных [01-12 из 12] (2006) DVDRip

633 | 13

7.04 ГБ

В этой теме нет новых непрочитанных сообщений. Верность (1965) DVDRip от ExKinoRay

36 | 8

1.37 ГБ

В этой теме нет новых непрочитанных сообщений. Стряпуха (1965) DVDRip от ExKinoRay

650 | 79

1.25 ГБ

В этой теме нет новых непрочитанных сообщений. Коллекционер / The Collector (1965) DVDRip от ExKinoRay

23 | 8

2.19 ГБ




Вы не можете начинать темы
Вы не можете отвечать на сообщения
Вы не можете редактировать свои сообщения
Вы не можете удалять свои сообщения
Вы не можете добавлять вложения

Перейти:  
Для Мосгорсуда, Роскомнадзора и рекламодателей: mosgorsud-torrent[собачка]yandex.ru
 Вход
ppkBB3cker v.2 © 2008-2014 @ PPK
[ Time : 0.058s | 14 Queries | GZIP : Off ]

Торрент трекер RUTOR.IN, Не можете зайти на rutor.org? Какой новый адрес рутор? Какое зеркало рутор? Не работает rutor.org и зеркала? Тогда наш торрент специально для вас. Rutor.in неофициальное зеркало rutor. В случае если у Вас заблокирован rutor или вдруг Вы не можете на него зайти, то Вы без труда сможете скачать бесплатно и без рекламы последние новинки кино, игр, сериалов и прочего у нас, на Rutor.in. Не нужно использовать прокси, чтобы зайти на рутор, достаточно воспользоваться нашим ресурсом. Все новые фильмы, игры, сериалы, книги и музыка за 2013 и 2014 годы через торрент бесплатно. Скачивайте фильмы в хорошем качестве, игры для пк, xbox, playstation без регистрации. У нас вы найдете новые Зарубежные сериалы и Русские сериалы 2013, 2014, 2015 годов. Оставайтесь с нами, качайте любимые фильмы, игры, сериалы, книги и музыку.