img image001 image001 image001 image001 image001 image001 image001 image001 image001 image001 image001 image001 image001 image001 image001

Planets Sun Sun Sun
Статистика раздачи
Автор: Nickolas3434 | Размер: 1.56 ГБ | Добавлен: 10 май 2016, 15:08
Раздают: 69    Качают: 2
Скачать торрент
Скачать торрент
Описание торрента

СообщениеДобавлено: 10 май 2016, 15:08 


Информация о фильме
Название: Если враг не сдается ...
Год выхода: 1982
Жанр: Драма, военный
Режиссер: Тимофей Левчук
В ролях: Яков Трипольский, Михаил Ульянов, Владимир Меньшов, Анатолий Пазенко, Валентин Кулик, Владимир Талашко, Александр Мовчан, Всеволод Гаврилов, Анатолий Матешко, Александр Быструшкин, Сергей Иванов, Вера Кузнецова, Нина Веселовская, Анатолий Барчук, Фёдор Стригун, Маргарита Криницына, Альгимантас Масюлис, Валентин Гафт, Борис Молодан, Владимир Ткаченко, Анатолий Васильев
О фильме:
В фильме рассказывается об одной из блестящих операций Великой Отечественной войны, проведенной Советским командованием в начале 1944 года — знаменитом Корсунь-Шевченковском сражении, после победы в котором для Советской Армии открылся выход на Балканы.
Страна: СССР, Киностудия им. А. Довженко
Продолжительность: 01:17:13
Перевод: не требуется
Файл
Кодек: x264
Качество: DVDRip-AVC
Видео: MPEG-4 AVC, 2500 Кбит/с, 718x572@1022x572
Звук: AC3, 6 ch, 384 Кбит/с

Общее
Уникальный идентификатор : 207624195404642226039720636315669446800 (0x9C32F72BB919785F917480C0E3354090)
Полное имя : R:МОИ РИПЫEsli vrag ne sdaetcja_1982-DVDRip-AVC.mkv
Формат : Matroska
Версия формата : Version 2
Размер файла : 1,56 Гбайт
Продолжительность : 1 ч. 17 м.
Общий поток : 2886 Кбит/сек
Дата кодирования : UTC 2015-05-16 13:41:37
Программа кодирования : mkvmerge v5.8.0 ('No Sleep / Pillow') built on Sep 2 2012 15:37:04
Библиотека кодирования : libebml v1.2.3 + libmatroska v1.3.0
Видео
Идентификатор : 1
Формат : AVC
Формат/Информация : Advanced Video Codec
Профиль формата : High@L4.1
Параметр CABAC формата : Да
Параметр ReFrames формата : 15 кадров
Идентификатор кодека : V_MPEG4/ISO/AVC
Продолжительность : 1 ч. 17 м.
Битрейт : 2500 Кбит/сек
Ширина : 718 пикселей
Высота : 572 пикселя
Соотношение сторон : 16:9
Соотношение сторон в оригинале : 16:9
Режим частоты кадров : Постоянный
Частота кадров : 25,000 кадров/сек
Цветовое пространство : YUV
Субдискретизация насыщенности : 4:2:0
Битовая глубина : 8 бит
Тип развёртки : Прогрессивная
Бит/(Пиксели*Кадры) : 0.243
Размер потока : 1,32 Гбайт (85%)
Библиотека кодирования : x264 core 146 r2538 121396c
Настройки программы : cabac=1 / ref=15 / deblock=1:-2:-2 / analyse=0x3:0x133 / me=umh / subme=10 / psy=1 / psy_rd=1.05:0.12 / mixed_ref=1 / me_range=32 / chroma_me=1 / trellis=2 / 8x8dct=1 / cqm=0 / deadzone=21,11 / fast_pskip=0 / chroma_qp_offset=-3 / threads=12 / lookahead_threads=2 / sliced_threads=0 / nr=0 / decimate=0 / interlaced=0 / bluray_compat=0 / constrained_intra=0 / bframes=8 / b_pyramid=2 / b_adapt=2 / b_bias=0 / direct=3 / weightb=1 / open_gop=0 / weightp=2 / keyint=250 / keyint_min=25 / scenecut=40 / intra_refresh=0 / rc=2pass / mbtree=0 / bitrate=2500 / ratetol=1.0 / qcomp=0.65 / qpmin=0 / qpmax=39 / qpstep=4 / cplxblur=20.0 / qblur=0.5 / ip_ratio=1.40 / pb_ratio=1.30 / aq=1:1.00
Язык : English
Default : Да
Forced : Нет
Цветовой диапазон : Limited
Основные цвета : BT.601 PAL
Характеристики трансфера : BT.470 System B, BT.470 System G
Коэффициенты матрицы : BT.601
Аудио
Идентификатор : 2
Формат : AC-3
Формат/Информация : Audio Coding 3
Расширение режима : CM (complete main)
Параметр Endianness формата : Big
Идентификатор кодека : A_AC3
Продолжительность : 1 ч. 17 м.
Вид битрейта : Постоянный
Битрейт : 384 Кбит/сек
Каналы : 6 каналов
Расположение каналов : Front: L C R, Side: L R, LFE
Частота : 48,0 КГц
Метод сжатия : С потерями
Размер потока : 212 Мбайт (13%)
Язык : Russian
Default : Да
Forced : Нет

Релиз от:
Автор релиза:



   Похожие торренты   Торрент   Размер 
В этой теме нет новых непрочитанных сообщений. Если враг не сдается ... (1982) DVDRip-AVC от ExKinoRay

31 | 5

1.45 ГБ

В этой теме нет новых непрочитанных сообщений. Если враг не сдается... (1982) DVDRip

167 | 7

1.37 ГБ

В этой теме нет новых непрочитанных сообщений. Тайный враг / Natural Enemy (1997) DVDRip от ExKinoRay

10 | 7

1.47 ГБ

В этой теме нет новых непрочитанных сообщений. Враг внизу (Под нами враг) / The Enemy below (1957) DVDRip от Generalfilm

100 | 15

1.37 ГБ

В этой теме нет новых непрочитанных сообщений. Белая собака / Белый пес / Лучший враг человека / White Dog (1982) Blu-ray Remux 1080p от MediaClub | L1

21 | 16

23.66 ГБ

В этой теме нет новых непрочитанных сообщений. Сдается недорого (2010) DVDRip от Кинорадиомагия

66 | 9

1.37 ГБ

В этой теме нет новых непрочитанных сообщений. Под нами враг / Враг внизу / Цель под нами / The Enemy Below (1957) DVDRip от KinoRay & Sheikn | P2, A

151 | 17

1.64 ГБ




Вы не можете начинать темы
Вы не можете отвечать на сообщения
Вы не можете редактировать свои сообщения
Вы не можете удалять свои сообщения
Вы не можете добавлять вложения

Перейти:  
Для Мосгорсуда, Роскомнадзора и рекламодателей: mosgorsud-torrent[собачка]yandex.ru
Настройки
ppkBB3cker v.2 © 2008-2014 @ PPK
[ Time : 0.024s | 16 Queries | GZIP : Off ]
CGP [Extreme] output time : 0.00012s | 0 Queries | GZIP : Off

Торрент трекер RUTOR.IN, Не можете зайти на rutor.org? Какой новый адрес рутор? Какое зеркало рутор? Не работает rutor.org и зеркала? Тогда наш торрент специально для вас. Rutor.in неофициальное зеркало rutor. В случае если у Вас заблокирован rutor или вдруг Вы не можете на него зайти, то Вы без труда сможете скачать бесплатно и без рекламы последние новинки кино, игр, сериалов и прочего у нас, на Rutor.in. Не нужно использовать прокси, чтобы зайти на рутор, достаточно воспользоваться нашим ресурсом. Все новые фильмы, игры, сериалы, книги и музыка за 2013 и 2014 годы через торрент бесплатно. Скачивайте фильмы в хорошем качестве, игры для пк, xbox, playstation без регистрации. У нас вы найдете новые Зарубежные сериалы и Русские сериалы 2013, 2014, 2015 годов. Оставайтесь с нами, качайте любимые фильмы, игры, сериалы, книги и музыку.