img image001 image001 image001 image001 image001 image001 image001 image001 image001 image001 image001 image001 image001 image001 image001

Planets Sun Sun Sun
Статистика раздачи
Автор: Nickolas3434 | Размер: 745.13 МБ | Добавлен: 10 май 2016
Раздают: 381    Качают: 36
Скачать торрент
Скачать торрент
Описание торрента

СообщениеДобавлено: 10 май 2016 

Страна: Россия
Производство: Новые люди
Жанр: драма, история
Год выпуска: 2016
Продолжительность: 01:25:46
Перевод: Не требуется
Cубтитры: нет
Оригинальная аудиодорожка: русский
Режиссер: Сергей Мокрицкий
В ролях:
Александр Ковтунец, Юлия Пересильд, Андрей Смоляков, Филипп Рейнхардт, Владислав Абашин, Борис Каморзин, Светлана Осадченко, Сергей Походаев...
Описание:
Жить в непростых военных условиях простому сельскому учителю Павлу Зубову давала вера в свой долг — учить детей. Не важно где, не важно кто они — это его призвание, его крест. Вера в любовь и семью, в простые человеческие ценности. Но, в одночасье, череда событий в корне меняет его жизнь, возвращая в реальный мир. В мир, где идёт война, где враг демонстрирует своё истинное лицо, и где невозможно бездействовать, оставаясь тихим учителем, надо бороться за свою семью, любовь, Родину, за свои идеалы и принципы. Перед ним встает непростой духовный и нравственный выбор — либо выживать и приспосабливаться, либо не предавать самого себя и своих близких.





Источник: HDTV 1080i
Качество видео: HDTVRip
Формат видео: AVI
Видео: 688x384 (16:9), 25 fps, XviD ~ 1077 kbps avg, 0.163 bit/pixel
Аудио: 48 kHz, MP3 2.0, 128 kbps
Раздача от:
Общее
Полное имя : Ya.uchitel.2015.HDTVRip-745_[New-team]_by_AVP_Studio.avi
Формат : AVI
Формат/Информация : Audio Video Interleave
Размер файла : 745 Мбайт
Продолжительность : 1 ч. 25 м.
Общий поток : 1215 Кбит/сек
Программа кодирования : VirtualDubMod 1.5.10.3 | www.virtualdub-fr.org || (build 2550/release)
Библиотека кодирования : VirtualDubMod build 2550/release
Видео
Идентификатор : 0
Формат : MPEG-4 Visual
Профиль формата : Advanced Simple@L5
Параметр BVOP формата : 1
Параметр QPel формата : Нет
Параметр GMC формата : Без точки перехода
Параметр матрицы формата : Выборочная
Идентификатор кодека : XVID
Идентификатор кодека/Подсказка : XviD
Продолжительность : 1 ч. 25 м.
Битрейт : 1077 Кбит/сек
Ширина : 688 пикселей
Высота : 384 пикселя
Соотношение сторон : 16:9
Частота кадров : 25,000 кадров/сек
Цветовое пространство : YUV
Субдискретизация насыщенности : 4:2:0
Битовая глубина : 8 бит
Тип развёртки : Прогрессивная
Метод сжатия : С потерями
Бит/(Пиксели*Кадры) : 0.163
Размер потока : 661 Мбайт (89%)
Библиотека кодирования : XviD 1.2.1 (UTC 2008-12-04)
Аудио
Идентификатор : 1
Формат : MPEG Audio
Версия формата : Version 1
Профиль формата : Layer 3
Идентификатор кодека : 55
Идентификатор кодека/Подсказка : MP3
Продолжительность : 1 ч. 25 м.
Вид битрейта : Постоянный
Битрейт : 128 Кбит/сек
Каналы : 2 канала
Частота : 48,0 КГц
Метод сжатия : С потерями
Размер потока : 78,5 Мбайт (11%)
Выравнивание : Соединение по промежуткам
Продолжительность промежутка : 40 мс. (1,00 видеокадр)
Время предзагрузки промежутка : 504 мс.
Библиотека кодирования : LAME3.99r
Настройки программы : -m s -V 4 -q 2 -lowpass 17 -b 128





   Похожие торренты   Торрент   Размер 
В этой теме нет новых непрочитанных сообщений. Я – учитель (2016) HDTVRip-AVC от New-Team

1362 | 73

1.46 ГБ

В этой теме нет новых непрочитанных сообщений. Я – учитель (2016) HDTVRip-AVC от New-Team

242 | 26

746.13 МБ

В этой теме нет новых непрочитанных сообщений. Я – учитель (2016) HDTVRip от New-Team

58 | 12

1.09 ГБ

В этой теме нет новых непрочитанных сообщений. Кошмарный учитель / Nightmare Teacher [01-06 из 12] (2016) HDTV 1080p от Batafurai Team | L2

7 | 3

3 ГБ

В этой теме нет новых непрочитанных сообщений. Учитель танцев (1952) DVDRip от New-Team

13 | 10

2.18 ГБ

В этой теме нет новых непрочитанных сообщений. Учитель танцев (1952) DVDRip от New-Team

126 | 10

1.09 ГБ

В этой теме нет новых непрочитанных сообщений. Учитель танцев (1952) DVDRip-AVC от New-Team

99 | 14

2.18 ГБ




Вы не можете начинать темы
Вы не можете отвечать на сообщения
Вы не можете редактировать свои сообщения
Вы не можете удалять свои сообщения
Вы не можете добавлять вложения

Перейти:  
Для Мосгорсуда, Роскомнадзора и рекламодателей: mosgorsud-torrent[собачка]yandex.ru
 Вход
ppkBB3cker v.2 © 2008-2014 @ PPK
[ Time : 0.557s | 16 Queries | GZIP : Off ]

Торрент трекер RUTOR.IN, Не можете зайти на rutor.org? Какой новый адрес рутор? Какое зеркало рутор? Не работает rutor.org и зеркала? Тогда наш торрент специально для вас. Rutor.in неофициальное зеркало rutor. В случае если у Вас заблокирован rutor или вдруг Вы не можете на него зайти, то Вы без труда сможете скачать бесплатно и без рекламы последние новинки кино, игр, сериалов и прочего у нас, на Rutor.in. Не нужно использовать прокси, чтобы зайти на рутор, достаточно воспользоваться нашим ресурсом. Все новые фильмы, игры, сериалы, книги и музыка за 2013 и 2014 годы через торрент бесплатно. Скачивайте фильмы в хорошем качестве, игры для пк, xbox, playstation без регистрации. У нас вы найдете новые Зарубежные сериалы и Русские сериалы 2013, 2014, 2015 годов. Оставайтесь с нами, качайте любимые фильмы, игры, сериалы, книги и музыку.