img image001 image001 image001 image001 image001 image001 image001 image001 image001 image001 image001 image001 image001 image001 image001

Planets Sun Sun Sun
Статистика раздачи
Автор: Nickolas3434 | Размер: 2.44 ГБ | Добавлен: 12 май 2016
Раздают: 145    Качают: 7
Скачать торрент
Скачать торрент
Описание торрента

СообщениеДобавлено: 12 май 2016 


Информация о фильме
Название: Шутки ангела
Год выпуска: 2013
Жанр: Комедия, фэнтези
Режиссёр: Евгений Аксёнов
В ролях: Артур Ваха, Ростислав Бершауэр, Мария Бортник, Владимир Фоков, Алексей Федотов, Елена Купрашевич, Алена Силова, Геннадий Смирнов, Ольга Кирсанова-Миропольская, Алексей Васильев, Сергей Бызгу, Татьяна Иванова, Марина Ордина, Олег Петров, Данил Кокин, Владимир Маслаков, Александр Михалев, Дмитрий Петрушков, Александр Есаулов, Максим Крупский, Игорь Ключников, Юрий Яковлев, Екатерина Гудожник, Андрей Белоцерковский
О фильме: Жил-был тиран и самодур бизнесмен Мухин. Так бы дальше и жил, мучая домочадцев и подчиненных, если бы… Если бы не началась за ним охота тайного убийцы, не было у него верного друга Пчелкина, надежного охранника Михалыча и маленькой дочки, которая подружилась с ангелом.
Выпущено: Россия, ТК "Домашний", ООО "Ланд Синема"
Продолжительность: 01:26:50
Перевод: Не требуется

Файл
Контейнер: MKV
Кодек: MPEG-4 AVC
Качество: HDTVRip (720p) [Исходник: HDTV (1080i)]
Видео: MPEG-4 AVC, 1280x712 (16:9), 3794 Кбит/с, 25 кадр/c, 0.167 bit/pixel
Аудио: Русский, Dolby AC3, 48000 Гц, 224 Кбит/с, 2 канала (Стерео) - Оригинал
General
Unique ID : 186163046556134163252473402840585834495 (0x8C0DB2D6CCB0DDC5A7566CF541178FFF)
Complete name : Shutki.angela.2013.HDTVRip.720p.mkv
Format : Matroska
Format version : Version 4 / Version 2
File size : 2.44 GiB
Duration : 1h 26mn
Overall bit rate : 4 019 Kbps
Movie name : Шутки ангела (2013) HDTVRip (720p) от ivandubskoj
Encoded date : UTC 2016-05-10 08:24:36
Writing application : mkvmerge v7.9.0 ('Birds') 64bit
Writing library : libebml v1.3.1 + libmatroska v1.4.2
Video
ID : 1
Format : AVC
Format/Info : Advanced Video Codec
Format profile : High@L4.1
Format settings, CABAC : Yes
Format settings, ReFrames : 9 frames
Codec ID : V_MPEG4/ISO/AVC
Duration : 1h 26mn
Bit rate : 3 794 Kbps
Width : 1 280 pixels
Height : 712 pixels
Display aspect ratio : 16:9
Frame rate mode : Constant
Frame rate : 25.000 fps
Color space : YUV
Chroma subsampling : 4:2:0
Bit depth : 8 bits
Scan type : Progressive
Bits/(Pixel*Frame) : 0.167
Stream size : 2.25 GiB (92%)
Title : Шутки ангела (2013)
Writing library : x264 core 148 r2597 e86f3a1
Encoding settings : cabac=1 / ref=9 / deblock=1:-3:-3 / analyse=0x3:0x113 / me=umh / subme=10 / psy=1 / psy_rd=1.00:0.15 / mixed_ref=1 / me_range=32 / chroma_me=1 / trellis=2 / 8x8dct=1 / cqm=0 / deadzone=21,11 / fast_pskip=0 / chroma_qp_offset=-3 / threads=6 / lookahead_threads=1 / sliced_threads=0 / nr=0 / decimate=0 / interlaced=0 / bluray_compat=0 / constrained_intra=0 / bframes=7 / b_pyramid=2 / b_adapt=2 / b_bias=0 / direct=3 / weightb=1 / open_gop=0 / weightp=2 / keyint=250 / keyint_min=25 / scenecut=40 / intra_refresh=0 / rc_lookahead=40 / rc=2pass / mbtree=0 / bitrate=3794 / ratetol=1.0 / qcomp=0.60 / qpmin=0 / qpmax=69 / qpstep=4 / cplxblur=20.0 / qblur=0.5 / vbv_maxrate=50000 / vbv_bufsize=62500 / nal_hrd=none / filler=0 / ip_ratio=1.40 / pb_ratio=1.30 / aq=1:1.00
Language : Russian
Default : Yes
Forced : No
Audio
ID : 2
Format : AC-3
Format/Info : Audio Coding 3
Mode extension : CM (complete main)
Format settings, Endianness : Big
Codec ID : A_AC3
Duration : 1h 26mn
Bit rate mode : Constant
Bit rate : 224 Kbps
Channel(s) : 2 channels
Channel positions : Front: L R
Sampling rate : 48.0 KHz
Bit depth : 16 bits
Compression mode : Lossy
Stream size : 139 MiB (6%)
Title : Original
Language : Russian
Default : Yes
Forced : No



Автор рипа - ivandubskoj



   Похожие торренты   Торрент   Размер 
В этой теме нет новых непрочитанных сообщений. Шутки ангела (2013) HDTVRip-AVC от New-Team

49 | 3

1.46 ГБ

В этой теме нет новых непрочитанных сообщений. Шутки ангела (2013) HDTVRip от Шкипер

53 | 10

745.09 МБ

В этой теме нет новых непрочитанных сообщений. Шутки ангела (2013) DVB от Files-x

70 | 6

1.11 ГБ

В этой теме нет новых непрочитанных сообщений. Шутки ангела (2013) SATRip от Files-x

99 | 13

1.38 ГБ

В этой теме нет новых непрочитанных сообщений. Курьер из «Рая» (2013) HDTVRip (720p) от ivandubskoj

253 | 48

2.42 ГБ

В этой теме нет новых непрочитанных сообщений. Глаза ангела / Eyes of an Angel (1991) HDTVRip 720p от ExKinoRay

7 | 1

2.48 ГБ

В этой теме нет новых непрочитанных сообщений. Везучая (2013) HDTVRip от ivandubskoj

242 | 12

720.97 МБ




Вы не можете начинать темы
Вы не можете отвечать на сообщения
Вы не можете редактировать свои сообщения
Вы не можете удалять свои сообщения
Вы не можете добавлять вложения

Перейти:  
Для Мосгорсуда, Роскомнадзора и рекламодателей: mosgorsud-torrent[собачка]yandex.ru
 Вход
ppkBB3cker v.2 © 2008-2014 @ PPK
[ Time : 0.591s | 16 Queries | GZIP : On ]

Торрент трекер RUTOR.IN, Не можете зайти на rutor.org? Какой новый адрес рутор? Какое зеркало рутор? Не работает rutor.org и зеркала? Тогда наш торрент специально для вас. Rutor.in неофициальное зеркало rutor. В случае если у Вас заблокирован rutor или вдруг Вы не можете на него зайти, то Вы без труда сможете скачать бесплатно и без рекламы последние новинки кино, игр, сериалов и прочего у нас, на Rutor.in. Не нужно использовать прокси, чтобы зайти на рутор, достаточно воспользоваться нашим ресурсом. Все новые фильмы, игры, сериалы, книги и музыка за 2013 и 2014 годы через торрент бесплатно. Скачивайте фильмы в хорошем качестве, игры для пк, xbox, playstation без регистрации. У нас вы найдете новые Зарубежные сериалы и Русские сериалы 2013, 2014, 2015 годов. Оставайтесь с нами, качайте любимые фильмы, игры, сериалы, книги и музыку.