img image001 image001 image001 image001 image001 image001 image001 image001 image001 image001 image001 image001 image001 image001 image001

Planets Sun Sun Sun
Статистика раздачи
Автор: Nickolas3434 | Размер: 1.46 ГБ | Добавлен: 12 май 2016
Раздают: 242    Качают: 7
Скачать торрент
Скачать торрент
Описание торрента

СообщениеДобавлено: 12 май 2016 

След тигра


Страна: Россия
Жанр: драма, криминал
Год выпуска: 2014
Продолжительность: 01:30:54
Перевод: Не требуется (русский)
Cубтитры: нет
Оригинальная аудиодорожка: русский
Режиссер: Алексей Козлов
В ролях: Александр Балуев, Алексей Кравченко, Денис Никифоров, Александр Устюгов, Мария Порошина, Мария Пирогова, Роман Мадянов, Олег Васильков, Вадим Андреев, Руслан Барабанов, Дин Фан, Никита Рогов
Описание:
В небольшом поселке, расположенном в тайге Приморского края, живет потомственный егерь Павел Широков. Однажды на его участке произошло дерзкое преступление: браконьеры отстрелили двух уссурийских тигров. В тот же день сотрудники ДПС остановили на трассе внедорожник. На просьбу открыть багажник пассажиры отреагировали агрессивно, началась перестрелка, и все ее участники погибли.
Прибывший на место преступления полковник Хазов обнаружил в багажнике машины убитых тигров и узнал в одном из погибших браконьеров местного охотника-проводника. Хазов уверен: в ближайшие дни преступники будут искать нового человека, который сможет вывести их на след тигра. Он предлагает Широкову опередить браконьеров и выйти к месту нахождения тигра первыми, чтобы успеть предотвратить убийство животного. Уже в тайге, практически выследив уссурийского тигра, Широков понимает, что попал в смертельную ловушку...

Релиз:
Автор рипа: Stalker oK
Сэмпл
Качество видео: HDTVRip-AVC [HDTV / 1080i]
Формат видео: MKV
Видео кодек: AVC
Аудио кодек: AC3
Видео: 2103 Кбит/сек, 942*528 (16:9), в 25,000 кадров/сек, AVC
Аудио: русский, 192 Кбит/сек, 48,0 КГц, 2 канала, AC-3

Общее
Уникальный идентификатор : 244235709231033435726057608007669259599 (0xB7BE162ABD9964A5ABFA4BABD9D01D4F)
Полное имя : M:RipsСлед тиграSled.tigra.2014.HDTVRip-AVC.1.45Gb.stalkerok.new-team.mkv
Формат : Matroska
Версия формата : Version 4 / Version 2
Размер файла : 1,46 Гбайт
Продолжительность : 1 ч. 30 м.
Общий поток : 2295 Кбит/сек
Название фильма : След тигра (2014) (New-Team) (Rip by Stalker oK)
Дата кодирования : UTC 2016-05-10 15:48:28
Программа кодирования : mkvmerge v8.6.1 ('Flying') 64bit
Библиотека кодирования : libebml v1.3.3 + libmatroska v1.4.4
Видео
Идентификатор : 1
Формат : AVC
Формат/Информация : Advanced Video Codec
Профиль формата : High@L4.1
Параметр CABAC формата : Да
Параметр ReFrames формата : 14 кадров
Идентификатор кодека : V_MPEG4/ISO/AVC
Продолжительность : 1 ч. 30 м.
Битрейт : 2103 Кбит/сек
Ширина : 942 пикселя
Высота : 528 пикселей
Соотношение сторон : 16:9
Режим частоты кадров : Постоянный
Частота кадров : 25,000 кадров/сек
Цветовое пространство : YUV
Субдискретизация насыщенности : 4:2:0
Битовая глубина : 8 бит
Тип развёртки : Прогрессивная
Бит/(Пиксели*Кадры) : 0.169
Размер потока : 1,33 Гбайт (92%)
Заголовок : След тигра (2014) (New-Team
Библиотека кодирования : x264 core 148 r2665kMod a01e339
Настройки программы : cabac=1 / ref=14 / deblock=1:-3:-2 / analyse=0x3:0x133 / me=umh / subme=11 / psy=1 / fade_compensate=0.00 / psy_rd=1.00:0.06 / mixed_ref=1 / me_range=48 / chroma_me=1 / trellis=2 / 8x8dct=1 / cqm=0 / deadzone=21,11 / fast_pskip=0 / chroma_qp_offset=-3 / threads=12 / lookahead_threads=3 / sliced_threads=0 / nr=0 / decimate=0 / interlaced=0 / bluray_compat=0 / constrained_intra=0 / fgo=0 / bframes=14 / b_pyramid=2 / b_adapt=2 / b_bias=0 / direct=3 / weightb=1 / open_gop=0 / weightp=2 / keyint=250 / keyint_min=25 / scenecut=40 / intra_refresh=0 / rc_lookahead=60 / rc=2pass / mbtree=0 / bitrate=2103 / ratetol=1.0 / qcomp=0.70 / qpmin=0 / qpmax=69 / qpstep=4 / cplxblur=20.0 / qblur=0.5 / vbv_maxrate=50000 / vbv_bufsize=62500 / nal_hrd=none / filler=0 / ip_ratio=1.40 / pb_ratio=1.30 / aq=1:0.83
Default : Да
Forced : Нет
Аудио
Идентификатор : 2
Формат : AC-3
Формат/Информация : Audio Coding 3
Расширение режима : CM (complete main)
Параметр Endianness формата : Big
Идентификатор кодека : A_AC3
Продолжительность : 1 ч. 30 м.
Вид битрейта : Постоянный
Битрейт : 192 Кбит/сек
Каналы : 2 канала
Расположение каналов : Front: L R
Частота : 48,0 КГц
Частота кадров : 31,250 кадров/сек (1536 spf)
Метод сжатия : С потерями
Размер потока : 125 Мбайт (8%)
Язык : Russian
Default : Да
Forced : Нет





   Похожие торренты   Торрент   Размер 
В этой теме нет новых непрочитанных сообщений. След тигра (2014) HDTVRip-AVC от New-Team

36 | 2

746.21 МБ

В этой теме нет новых непрочитанных сообщений. След тигра (2014) HDTVRip от Шкипер

342 | 16

745.16 МБ

В этой теме нет новых непрочитанных сообщений. След тигра (2014) HDTVRip-AVC от Files-x

272 | 17

1.37 ГБ

В этой теме нет новых непрочитанных сообщений. След тигра (2014) HDTVRip от Files-х

701 | 24

1.37 ГБ

В этой теме нет новых непрочитанных сообщений. След тигра (2014) HDTVRip 720p от MediaClub

236 | 17

2.43 ГБ

В этой теме нет новых непрочитанных сообщений. След тигра (2014) DVB от Files-x

1443 | 62

1.71 ГБ

В этой теме нет новых непрочитанных сообщений. След тигра (2014) DVB-T2Rip-AVC

1621 | 94

1.51 ГБ




Вы не можете начинать темы
Вы не можете отвечать на сообщения
Вы не можете редактировать свои сообщения
Вы не можете удалять свои сообщения
Вы не можете добавлять вложения

Перейти:  
Для Мосгорсуда, Роскомнадзора и рекламодателей: mosgorsud-torrent[собачка]yandex.ru
 Вход
ppkBB3cker v.2 © 2008-2014 @ PPK
[ Time : 0.015s | 15 Queries | GZIP : Off ]

Торрент трекер RUTOR.IN, Не можете зайти на rutor.org? Какой новый адрес рутор? Какое зеркало рутор? Не работает rutor.org и зеркала? Тогда наш торрент специально для вас. Rutor.in неофициальное зеркало rutor. В случае если у Вас заблокирован rutor или вдруг Вы не можете на него зайти, то Вы без труда сможете скачать бесплатно и без рекламы последние новинки кино, игр, сериалов и прочего у нас, на Rutor.in. Не нужно использовать прокси, чтобы зайти на рутор, достаточно воспользоваться нашим ресурсом. Все новые фильмы, игры, сериалы, книги и музыка за 2013 и 2014 годы через торрент бесплатно. Скачивайте фильмы в хорошем качестве, игры для пк, xbox, playstation без регистрации. У нас вы найдете новые Зарубежные сериалы и Русские сериалы 2013, 2014, 2015 годов. Оставайтесь с нами, качайте любимые фильмы, игры, сериалы, книги и музыку.