img image001 image001 image001 image001 image001 image001 image001 image001 image001 image001 image001 image001 image001 image001 image001

Planets Sun Sun Sun
Статистика раздачи
Автор: Nickolas3434 | Размер: 4.16 ГБ | Добавлен: 11 май 2016
Раздают: 251    Качают: 2
Скачать торрент
Скачать торрент
Описание торрента

СообщениеДобавлено: 11 май 2016 


Информация о фильме
Оригинальное название: А зори здесь тихие...
Год выпуска: 2015
Жанр: Драма, ВОВ, история, экранизация
Выпущено: Россия, Интерфест, Реал-Дакота, Star Media
Режиссер: Ренат Давлетьяров
В ролях: Пётр Фёдоров, Евгения Малахова, Агния Кузнецова, Анастасия Микульчина, Софья Лебедева (II), Кристина Асмус, Екатерина Вилкова, Анатолий Белый, Дарья Мороз, Виктор Проскурин, Максим Дрозд, Наталья Батрак, Илья Алексеев, Валерий Гришко, Евгения Ульянова, Сергей Видинеев, Юлия Силаева, Елена Медведева, Илья Ермолов, Василиса Кучеренко, Алеся Гузько, Юлия Полынская, Надежда Азоркина, Евгений Костин, Артур Еникеев
О фильме: Май 1942 года. В самый разгар Великой Отечественной войны вдалеке от линии фронта, у забытого богом разъезда, фашисты выбрасывают десант с целью пробраться на Кировскую железную дорогу и Беломорско-Балтийский канал. Это не обычные солдаты-пехотинцы, это опытные, тренированные диверсанты, элита войск СС, «сверхлюди». А против них — старшина Васков и пять девчонок-зенитчиц. Казалось бы, бой местного значения, но на кону — стратегически важная транспортная артерия, соединяющая значимые центры страны. Смогут ли старшина и его хрупкие новобранцы предотвратить нацистскую диверсию, и какой ценой?

Файл
Качество: WEB-DLRip (AVC)
Видео: MPEG-4 AVC, ~ 2500-3600 Кбит/с, 1022x576, 25 кадр/c
Аудио: AC3, 2 ch, 192 Кбит/с
Размер: 4.16 ГБ
Продолжительность: 4 х ~ 00:45:00
Язык: Русский
x264 [info]: frame I:658 Avg QP:13.21 size: 96778
x264 [info]: frame P:19476 Avg QP:17.51 size: 27543
x264 [info]: frame B:46663 Avg QP:21.22 size: 5105
x264 [info]: consecutive B-frames: 4.3% 8.1% 10.4% 63.9% 6.1% 5.9% 0.4% 0.3% 0.2% 0.4%
x264 [info]: mb I I16..4: 6.2% 61.7% 32.0%
x264 [info]: mb P I16..4: 1.5% 11.7% 1.6% P16..4: 29.6% 29.5% 14.3% 3.9% 0.7% skip: 7.2%
x264 [info]: mb B I16..4: 0.3% 1.6% 0.2% B16..8: 25.3% 14.1% 2.8% direct: 4.1% skip:51.5% L0:34.6% L1:48.4% BI:17.0%
x264 [info]: 8x8 transform intra:76.5% inter:46.3%
x264 [info]: direct mvs spatial:96.5% temporal:3.5%
x264 [info]: coded y,uvDC,uvAC intra: 75.1% 72.5% 46.3% inter: 19.2% 17.8% 9.6%
x264 [info]: i16 v,h,dc,p: 19% 26% 5% 50%
x264 [info]: i8 v,h,dc,ddl,ddr,vr,hd,vl,hu: 13% 12% 10% 7% 10% 11% 11% 12% 14%
x264 [info]: i4 v,h,dc,ddl,ddr,vr,hd,vl,hu: 17% 14% 10% 7% 11% 11% 11% 9% 11%
x264 [info]: i8c dc,h,v,p: 36% 30% 21% 14%
x264 [info]: Weighted P-Frames: Y:3.8% UV:1.9%
x264 [info]: ref P L0: 63.7% 10.2% 13.0% 3.7% 2.6% 1.8% 1.5% 0.8% 0.8% 0.7% 0.6% 0.6% 0.1% 0.0%
x264 [info]: ref B L0: 88.8% 6.1% 1.9% 0.9% 0.6% 0.5% 0.4% 0.3% 0.2% 0.2% 0.1%
x264 [info]: ref B L1: 96.7% 3.3%
x264 [info]: kb/s:2510.00
x264 [info]: frame I:694 Avg QP:13.57 size:116459
x264 [info]: frame P:19933 Avg QP:18.04 size: 33141
x264 [info]: frame B:46348 Avg QP:21.76 size: 6028
x264 [info]: consecutive B-frames: 5.3% 8.7% 9.5% 61.3% 6.8% 7.0% 0.6% 0.3% 0.2% 0.4%
x264 [info]: mb I I16..4: 4.9% 62.1% 33.0%
x264 [info]: mb P I16..4: 1.1% 13.7% 1.6% P16..4: 27.6% 28.6% 16.0% 4.9% 1.0% skip: 5.5%
x264 [info]: mb B I16..4: 0.2% 1.9% 0.2% B16..8: 25.0% 15.7% 3.5% direct: 4.9% skip:48.6% L0:33.6% L1:46.2% BI:20.3%
x264 [info]: 8x8 transform intra:80.4% inter:45.0%
x264 [info]: direct mvs spatial:97.8% temporal:2.2%
x264 [info]: coded y,uvDC,uvAC intra: 81.1% 74.5% 45.6% inter: 22.4% 17.5% 9.7%
x264 [info]: i16 v,h,dc,p: 23% 15% 6% 55%
x264 [info]: i8 v,h,dc,ddl,ddr,vr,hd,vl,hu: 13% 12% 9% 8% 10% 11% 12% 12% 15%
x264 [info]: i4 v,h,dc,ddl,ddr,vr,hd,vl,hu: 15% 12% 8% 7% 12% 12% 12% 10% 13%
x264 [info]: i8c dc,h,v,p: 38% 27% 20% 15%
x264 [info]: Weighted P-Frames: Y:3.6% UV:1.3%
x264 [info]: ref P L0: 66.4% 12.0% 11.7% 3.0% 2.0% 1.3% 1.1% 0.6% 0.5% 0.4% 0.4% 0.4% 0.1% 0.0%
x264 [info]: ref B L0: 91.3% 5.1% 1.5% 0.6% 0.4% 0.3% 0.3% 0.2% 0.2% 0.1% 0.1%
x264 [info]: ref B L1: 97.1% 2.9%
x264 [info]: kb/s:3048.31
x264 [info]: frame I:653 Avg QP:14.34 size:142171
x264 [info]: frame P:20359 Avg QP:18.30 size: 38963
x264 [info]: frame B:42898 Avg QP:22.95 size: 6738
x264 [info]: consecutive B-frames: 7.3% 10.9% 10.6% 55.2% 7.2% 6.7% 0.9% 0.6% 0.1% 0.5%
x264 [info]: mb I I16..4: 2.2% 60.6% 37.2%
x264 [info]: mb P I16..4: 0.7% 11.7% 1.7% P16..4: 29.1% 25.2% 18.2% 5.8% 1.5% skip: 6.1%
x264 [info]: mb B I16..4: 0.2% 2.2% 0.3% B16..8: 22.4% 15.2% 3.9% direct: 5.6% skip:50.2% L0:31.8% L1:45.1% BI:23.1%
x264 [info]: 8x8 transform intra:80.0% inter:42.1%
x264 [info]: direct mvs spatial:97.8% temporal:2.2%
x264 [info]: coded y,uvDC,uvAC intra: 84.9% 79.1% 53.2% inter: 26.1% 19.0% 11.2%
x264 [info]: i16 v,h,dc,p: 21% 16% 7% 55%
x264 [info]: i8 v,h,dc,ddl,ddr,vr,hd,vl,hu: 13% 11% 8% 8% 10% 11% 11% 12% 15%
x264 [info]: i4 v,h,dc,ddl,ddr,vr,hd,vl,hu: 15% 11% 7% 7% 12% 12% 12% 11% 13%
x264 [info]: i8c dc,h,v,p: 40% 25% 20% 15%
x264 [info]: Weighted P-Frames: Y:4.9% UV:1.7%
x264 [info]: ref P L0: 68.7% 13.1% 10.2% 2.5% 1.6% 1.0% 0.8% 0.5% 0.4% 0.3% 0.3% 0.3% 0.1% 0.0%
x264 [info]: ref B L0: 91.5% 4.9% 1.4% 0.6% 0.4% 0.3% 0.3% 0.2% 0.2% 0.1% 0.1%
x264 [info]: ref B L1: 96.9% 3.1%
x264 [info]: kb/s:3677.44
x264 [info]: frame I:683 Avg QP:13.90 size:114532
x264 [info]: frame P:20745 Avg QP:18.33 size: 35678
x264 [info]: frame B:45623 Avg QP:21.96 size: 7905
x264 [info]: consecutive B-frames: 6.4% 9.2% 11.2% 58.8% 5.8% 7.2% 0.4% 0.3% 0.2% 0.6%
x264 [info]: mb I I16..4: 5.4% 58.9% 35.7%
x264 [info]: mb P I16..4: 1.1% 13.6% 2.2% P16..4: 27.7% 27.3% 15.8% 4.8% 1.1% skip: 6.5%
x264 [info]: mb B I16..4: 0.2% 2.7% 0.4% B16..8: 23.3% 16.0% 4.3% direct: 5.7% skip:47.5% L0:34.2% L1:45.0% BI:20.8%
x264 [info]: 8x8 transform intra:77.9% inter:45.4%
x264 [info]: direct mvs spatial:97.8% temporal:2.2%
x264 [info]: coded y,uvDC,uvAC intra: 82.3% 75.1% 48.2% inter: 24.5% 18.8% 10.1%
x264 [info]: i16 v,h,dc,p: 20% 25% 5% 49%
x264 [info]: i8 v,h,dc,ddl,ddr,vr,hd,vl,hu: 15% 12% 9% 7% 10% 12% 11% 12% 14%
x264 [info]: i4 v,h,dc,ddl,ddr,vr,hd,vl,hu: 17% 13% 7% 7% 12% 12% 11% 10% 12%
x264 [info]: i8c dc,h,v,p: 38% 27% 20% 15%
x264 [info]: Weighted P-Frames: Y:3.3% UV:1.3%
x264 [info]: ref P L0: 65.8% 11.7% 11.3% 3.1% 2.2% 1.5% 1.3% 0.7% 0.7% 0.6% 0.6% 0.5% 0.1% 0.0%
x264 [info]: ref B L0: 89.7% 5.4% 1.8% 0.8% 0.6% 0.5% 0.4% 0.3% 0.2% 0.2% 0.1%
x264 [info]: ref B L1: 97.0% 3.0%
x264 [info]: kb/s:3516.77

Общее
Уникальный идентификатор : 210739475668054679818288931186002544882 (0x9E8AF258A92D57548CCBC2F0701EC8F2)
Полное имя : D:ЗагрузкиA.Zori.Zdes.Tihie.2015.x264.WEB-DLRip.(AVC).ExKinoRayA.Zori.Zdes.Tihie.(E01).2015.x264.WEB-DLRip.(AVC).ExKinoRay.mkv
Формат : Matroska
Версия формата : Version 2
Размер файла : 862 Мбайт
Продолжительность : 44 м.
Общий поток : 2705 Кбит/сек
Название фильма : А зори здесь тихие...2015.(1-я серия).Rip by: ollan
Дата кодирования : UTC 2016-05-10 19:42:25
Программа кодирования : mkvmerge v5.6.0 ('Kenya Kane') built on May 27 2012 16:44:04
Библиотека кодирования : libebml v1.2.3 + libmatroska v1.3.0
Attachements : Cover - A.Zori.Zdes.Tihie.1.png
Видео
Идентификатор : 1
Формат : AVC
Формат/Информация : Advanced Video Codec
Профиль формата : High@L4.1
Параметр CABAC формата : Да
Параметр ReFrames формата : 12 кадров
Идентификатор кодека : V_MPEG4/ISO/AVC
Продолжительность : 44 м.
Битрейт : 2510 Кбит/сек
Ширина : 1022 пикселя
Высота : 576 пикселей
Соотношение сторон : 16:9
Режим частоты кадров : Постоянный
Частота кадров : 25,000 кадров/сек
Цветовое пространство : YUV
Субдискретизация насыщенности : 4:2:0
Битовая глубина : 8 бит
Тип развёртки : Прогрессивная
Бит/(Пиксели*Кадры) : 0.171
Размер потока : 783 Мбайт (91%)
Библиотека кодирования : x264 core 146 r2538 121396c
Настройки программы : cabac=1 / ref=12 / deblock=1:-3:-3 / analyse=0x3:0x133 / me=umh / subme=11 / psy=1 / psy_rd=0.95:0.05 / mixed_ref=1 / me_range=48 / chroma_me=1 / trellis=2 / 8x8dct=1 / cqm=0 / deadzone=21,11 / fast_pskip=0 / chroma_qp_offset=-3 / threads=12 / lookahead_threads=2 / sliced_threads=0 / nr=0 / decimate=0 / interlaced=0 / bluray_compat=0 / constrained_intra=0 / bframes=9 / b_pyramid=2 / b_adapt=2 / b_bias=0 / direct=3 / weightb=1 / open_gop=0 / weightp=2 / keyint=250 / keyint_min=25 / scenecut=40 / intra_refresh=0 / rc_lookahead=50 / rc=2pass / mbtree=1 / bitrate=2510 / ratetol=1.0 / qcomp=0.60 / qpmin=0 / qpmax=69 / qpstep=4 / cplxblur=20.0 / qblur=0.5 / vbv_maxrate=50000 / vbv_bufsize=62500 / nal_hrd=none / filler=0 / ip_ratio=1.40 / aq=1:1.00
Язык : Russian
Default : Да
Forced : Нет
Аудио
Идентификатор : 2
Формат : AC-3
Формат/Информация : Audio Coding 3
Расширение режима : CM (complete main)
Параметр Endianness формата : Big
Идентификатор кодека : A_AC3
Продолжительность : 44 м.
Вид битрейта : Постоянный
Битрейт : 192 Кбит/сек
Каналы : 2 канала
Расположение каналов : Front: L R
Частота : 48,0 КГц
Частота кадров : 31,250 кадров/сек (1536 spf)
Метод сжатия : С потерями
Размер потока : 61,2 Мбайт (7%)
Язык : Russian
Default : Да
Forced : Нет
Общее
Уникальный идентификатор : 207508304812606675051759861770943213962 (0x9C1CA552CE3C5EBFA2A5D06C8E44318A)
Полное имя : D:ЗагрузкиA.Zori.Zdes.Tihie.2015.x264.WEB-DLRip.(AVC).ExKinoRayA.Zori.Zdes.Tihie.(E02).2015.x264.WEB-DLRip.(AVC).ExKinoRay.mkv
Формат : Matroska
Версия формата : Version 2
Размер файла : 1,16 Гбайт
Продолжительность : 44 м.
Общий поток : 3712 Кбит/сек
Название фильма : А зори здесь тихие...2015.(2-я серия).Rip by: ollan
Дата кодирования : UTC 2016-05-10 17:52:54
Программа кодирования : mkvmerge v5.6.0 ('Kenya Kane') built on May 27 2012 16:44:04
Библиотека кодирования : libebml v1.2.3 + libmatroska v1.3.0
Attachements : Cover - A.Zori.Zdes.Tihie.2.png
Видео
Идентификатор : 1
Формат : AVC
Формат/Информация : Advanced Video Codec
Профиль формата : High@L4.1
Параметр CABAC формата : Да
Параметр ReFrames формата : 12 кадров
Идентификатор кодека : V_MPEG4/ISO/AVC
Продолжительность : 44 м.
Битрейт : 3516 Кбит/сек
Ширина : 1022 пикселя
Высота : 576 пикселей
Соотношение сторон : 16:9
Режим частоты кадров : Постоянный
Частота кадров : 25,000 кадров/сек
Цветовое пространство : YUV
Субдискретизация насыщенности : 4:2:0
Битовая глубина : 8 бит
Тип развёртки : Прогрессивная
Бит/(Пиксели*Кадры) : 0.239
Размер потока : 1,08 Гбайт (93%)
Библиотека кодирования : x264 core 146 r2538 121396c
Настройки программы : cabac=1 / ref=12 / deblock=1:-3:-3 / analyse=0x3:0x133 / me=umh / subme=11 / psy=1 / psy_rd=0.95:0.05 / mixed_ref=1 / me_range=48 / chroma_me=1 / trellis=2 / 8x8dct=1 / cqm=0 / deadzone=21,11 / fast_pskip=0 / chroma_qp_offset=-3 / threads=12 / lookahead_threads=2 / sliced_threads=0 / nr=0 / decimate=0 / interlaced=0 / bluray_compat=0 / constrained_intra=0 / bframes=9 / b_pyramid=2 / b_adapt=2 / b_bias=0 / direct=3 / weightb=1 / open_gop=0 / weightp=2 / keyint=250 / keyint_min=25 / scenecut=40 / intra_refresh=0 / rc_lookahead=50 / rc=2pass / mbtree=1 / bitrate=3516 / ratetol=1.0 / qcomp=0.60 / qpmin=0 / qpmax=69 / qpstep=4 / cplxblur=20.0 / qblur=0.5 / vbv_maxrate=50000 / vbv_bufsize=62500 / nal_hrd=none / filler=0 / ip_ratio=1.40 / aq=1:1.00
Язык : Russian
Default : Да
Forced : Нет
Аудио
Идентификатор : 2
Формат : AC-3
Формат/Информация : Audio Coding 3
Расширение режима : CM (complete main)
Параметр Endianness формата : Big
Идентификатор кодека : A_AC3
Продолжительность : 44 м.
Вид битрейта : Постоянный
Битрейт : 192 Кбит/сек
Каналы : 2 канала
Расположение каналов : Front: L R
Частота : 48,0 КГц
Частота кадров : 31,250 кадров/сек (1536 spf)
Метод сжатия : С потерями
Размер потока : 61,4 Мбайт (5%)
Язык : Russian
Default : Да
Forced : Нет
Общее
Уникальный идентификатор : 205207365596281064452652926028391538377 (0x9A618042EAB4DE3A804561F3C0725EC9)
Полное имя : D:ЗагрузкиA.Zori.Zdes.Tihie.2015.x264.WEB-DLRip.(AVC).ExKinoRayA.Zori.Zdes.Tihie.(E03).2015.x264.WEB-DLRip.(AVC).ExKinoRay.mkv
Формат : Matroska
Версия формата : Version 2
Размер файла : 1,01 Гбайт
Продолжительность : 44 м.
Общий поток : 3243 Кбит/сек
Название фильма : А зори здесь тихие...2015.(3-я серия).Rip by: ollan
Дата кодирования : UTC 2016-05-10 18:35:50
Программа кодирования : mkvmerge v5.6.0 ('Kenya Kane') built on May 27 2012 16:44:04
Библиотека кодирования : libebml v1.2.3 + libmatroska v1.3.0
Attachements : Cover - A.Zori.Zdes.Tihie.3.png
Видео
Идентификатор : 1
Формат : AVC
Формат/Информация : Advanced Video Codec
Профиль формата : High@L4.1
Параметр CABAC формата : Да
Параметр ReFrames формата : 12 кадров
Идентификатор кодека : V_MPEG4/ISO/AVC
Продолжительность : 44 м.
Битрейт : 3048 Кбит/сек
Ширина : 1022 пикселя
Высота : 576 пикселей
Соотношение сторон : 16:9
Режим частоты кадров : Постоянный
Частота кадров : 25,000 кадров/сек
Цветовое пространство : YUV
Субдискретизация насыщенности : 4:2:0
Битовая глубина : 8 бит
Тип развёртки : Прогрессивная
Бит/(Пиксели*Кадры) : 0.207
Размер потока : 954 Мбайт (92%)
Библиотека кодирования : x264 core 146 r2538 121396c
Настройки программы : cabac=1 / ref=12 / deblock=1:-3:-3 / analyse=0x3:0x133 / me=umh / subme=11 / psy=1 / psy_rd=0.95:0.05 / mixed_ref=1 / me_range=48 / chroma_me=1 / trellis=2 / 8x8dct=1 / cqm=0 / deadzone=21,11 / fast_pskip=0 / chroma_qp_offset=-3 / threads=12 / lookahead_threads=2 / sliced_threads=0 / nr=0 / decimate=0 / interlaced=0 / bluray_compat=0 / constrained_intra=0 / bframes=9 / b_pyramid=2 / b_adapt=2 / b_bias=0 / direct=3 / weightb=1 / open_gop=0 / weightp=2 / keyint=250 / keyint_min=25 / scenecut=40 / intra_refresh=0 / rc_lookahead=50 / rc=2pass / mbtree=1 / bitrate=3048 / ratetol=1.0 / qcomp=0.60 / qpmin=0 / qpmax=69 / qpstep=4 / cplxblur=20.0 / qblur=0.5 / vbv_maxrate=50000 / vbv_bufsize=62500 / nal_hrd=none / filler=0 / ip_ratio=1.40 / aq=1:1.00
Язык : Russian
Default : Да
Forced : Нет
Аудио
Идентификатор : 2
Формат : AC-3
Формат/Информация : Audio Coding 3
Расширение режима : CM (complete main)
Параметр Endianness формата : Big
Идентификатор кодека : A_AC3
Продолжительность : 44 м.
Вид битрейта : Постоянный
Битрейт : 192 Кбит/сек
Каналы : 2 канала
Расположение каналов : Front: L R
Частота : 48,0 КГц
Частота кадров : 31,250 кадров/сек (1536 spf)
Метод сжатия : С потерями
Размер потока : 61,3 Мбайт (6%)
Язык : Russian
Default : Да
Forced : Нет
Общее
Уникальный идентификатор : 187709750712557496348228424267727337242 (0x8D37953DDACD6ED2A68C745636E7771A)
Полное имя : D:ЗагрузкиA.Zori.Zdes.Tihie.2015.x264.WEB-DLRip.(AVC).ExKinoRayA.Zori.Zdes.Tihie.(E04).2015.x264.WEB-DLRip.(AVC).ExKinoRay.mkv
Формат : Matroska
Версия формата : Version 2
Размер файла : 1,15 Гбайт
Продолжительность : 42 м.
Общий поток : 3872 Кбит/сек
Название фильма : А зори здесь тихие...2015.(4-я серия).Rip by: ollan
Дата кодирования : UTC 2016-05-10 19:46:38
Программа кодирования : mkvmerge v5.6.0 ('Kenya Kane') built on May 27 2012 16:44:04
Библиотека кодирования : libebml v1.2.3 + libmatroska v1.3.0
Attachements : Cover - A.Zori.Zdes.Tihie.4.png
Видео
Идентификатор : 1
Формат : AVC
Формат/Информация : Advanced Video Codec
Профиль формата : High@L4.1
Параметр CABAC формата : Да
Параметр ReFrames формата : 12 кадров
Идентификатор кодека : V_MPEG4/ISO/AVC
Продолжительность : 42 м.
Битрейт : 3676 Кбит/сек
Ширина : 1022 пикселя
Высота : 576 пикселей
Соотношение сторон : 16:9
Режим частоты кадров : Постоянный
Частота кадров : 25,000 кадров/сек
Цветовое пространство : YUV
Субдискретизация насыщенности : 4:2:0
Битовая глубина : 8 бит
Тип развёртки : Прогрессивная
Бит/(Пиксели*Кадры) : 0.250
Размер потока : 1,07 Гбайт (93%)
Библиотека кодирования : x264 core 146 r2538 121396c
Настройки программы : cabac=1 / ref=12 / deblock=1:-3:-3 / analyse=0x3:0x133 / me=umh / subme=11 / psy=1 / psy_rd=0.95:0.05 / mixed_ref=1 / me_range=48 / chroma_me=1 / trellis=2 / 8x8dct=1 / cqm=0 / deadzone=21,11 / fast_pskip=0 / chroma_qp_offset=-3 / threads=12 / lookahead_threads=2 / sliced_threads=0 / nr=0 / decimate=0 / interlaced=0 / bluray_compat=0 / constrained_intra=0 / bframes=9 / b_pyramid=2 / b_adapt=2 / b_bias=0 / direct=3 / weightb=1 / open_gop=0 / weightp=2 / keyint=250 / keyint_min=25 / scenecut=40 / intra_refresh=0 / rc_lookahead=50 / rc=2pass / mbtree=1 / bitrate=3676 / ratetol=1.0 / qcomp=0.60 / qpmin=0 / qpmax=69 / qpstep=4 / cplxblur=20.0 / qblur=0.5 / vbv_maxrate=50000 / vbv_bufsize=62500 / nal_hrd=none / filler=0 / ip_ratio=1.40 / aq=1:1.00
Язык : Russian
Default : Да
Forced : Нет
Аудио
Идентификатор : 2
Формат : AC-3
Формат/Информация : Audio Coding 3
Расширение режима : CM (complete main)
Параметр Endianness формата : Big
Идентификатор кодека : A_AC3
Продолжительность : 42 м.
Вид битрейта : Постоянный
Битрейт : 192 Кбит/сек
Каналы : 2 канала
Расположение каналов : Front: L R
Частота : 48,0 КГц
Частота кадров : 31,250 кадров/сек (1536 spf)
Метод сжатия : С потерями
Размер потока : 58,5 Мбайт (5%)
Язык : Russian
Default : Да
Forced : Нет





Релиз от: Rip by:



   Похожие торренты   Торрент   Размер 
В этой теме нет новых непрочитанных сообщений. А зори здесь тихие... [01 из 04] (2015) WEB-DLRip от ExKinoRay | Расширенная версия

18 | 3

2.73 ГБ

В этой теме нет новых непрочитанных сообщений. А зори здесь тихие... [01 из 04] (2015) WEB-DL 1080p от ExKinoRay | Расширенная версия

99 | 3

6.17 ГБ

В этой теме нет новых непрочитанных сообщений. А зори здесь тихие... [01 из 04] (2015) WEB-DL 720p от ExKinoRay | Расширенная версия

29 | 6

3.7 ГБ

В этой теме нет новых непрочитанных сообщений. А зори здесь тихие... [01-04 из 04] (2015) WEB-DLRip-AVC | Расширенная версия

58 | 6

2.88 ГБ

В этой теме нет новых непрочитанных сообщений. А зори здесь тихие... [01-04 из 04] (2015) WEB-DLRip | КПК | Расширенная версия

17 | 3

754.7 МБ

В этой теме нет новых непрочитанных сообщений. А зори здесь тихие... [1-4 серия из 4] (2015) WEB-DLRip от MegaPeer | Расширенная версия

10 | 4

1.37 ГБ

В этой теме нет новых непрочитанных сообщений. А зори здесь тихие... [01-04 из 04] (2015) HDTVRip-AVC от Files-x | Расширенная версия

20 | 4

2.58 ГБ




Вы не можете начинать темы
Вы не можете отвечать на сообщения
Вы не можете редактировать свои сообщения
Вы не можете удалять свои сообщения
Вы не можете добавлять вложения

Перейти:  
Для Мосгорсуда, Роскомнадзора и рекламодателей: mosgorsud-torrent[собачка]yandex.ru
 Вход
ppkBB3cker v.2 © 2008-2014 @ PPK
[ Time : 0.039s | 16 Queries | GZIP : Off ]

Торрент трекер RUTOR.IN, Не можете зайти на rutor.org? Какой новый адрес рутор? Какое зеркало рутор? Не работает rutor.org и зеркала? Тогда наш торрент специально для вас. Rutor.in неофициальное зеркало rutor. В случае если у Вас заблокирован rutor или вдруг Вы не можете на него зайти, то Вы без труда сможете скачать бесплатно и без рекламы последние новинки кино, игр, сериалов и прочего у нас, на Rutor.in. Не нужно использовать прокси, чтобы зайти на рутор, достаточно воспользоваться нашим ресурсом. Все новые фильмы, игры, сериалы, книги и музыка за 2013 и 2014 годы через торрент бесплатно. Скачивайте фильмы в хорошем качестве, игры для пк, xbox, playstation без регистрации. У нас вы найдете новые Зарубежные сериалы и Русские сериалы 2013, 2014, 2015 годов. Оставайтесь с нами, качайте любимые фильмы, игры, сериалы, книги и музыку.
cron