img image001 image001 image001 image001 image001 image001 image001 image001 image001 image001 image001 image001 image001 image001 image001

Planets Sun Sun Sun
Статистика раздачи
Автор: Nickolas3434 | Размер: 7.38 ГБ | Добавлен: 13 май 2016
Раздают: 27    Качают: 4
Скачать торрент
Скачать торрент
Описание торрента

СообщениеДобавлено: 13 май 2016 


Информация о фильме
Название: Солдаты свободы
Год выхода: 1977
Жанр: Драма, военный
Режиссер: Юрий Озеров
В ролях: Антон Горчев, Богуш Пасторек, Василий Лановой, Виктор Авдюшко, Евгений Матвеев, З. Павлов, Игорь Смяловский, Кристина Миколаевска, Лешек Хердеген, Любомир Кабакчиев, Михаил Ульянов, Наум Шопов, Стефан Гецов, Фриц Дитц, Хорст Пройскер, Яков Трипольский
О фильме:
Киноэпопея в четырёх фильмах, отражает события Великой Отечественной войны - борьбу народов Восточной Европы против фашизма. Снятый в жанре исторической хроники, фильм отражает следующие события Великой Отечественной войны: капитуляция армии Паулюса, подготовка Народного восстания в Словакии; переговоры польских коммунистов с правительством Сикорского о совместной борьбе с фашизмом; создание Национального комитета Отечественного фронта в Болгарии и подготовка подпольщиками-коммунистами вооруженного восстания, развертывание партизанского движения; провал очередной попытки гитлеровцев разделаться с Народно-освободительной армией Тито; одна из крупнейших военных операций - 'Багратион'; начало освобождения Польши, создание Народного правительства в Люблине, Варшавское восстание; капитуляция Бур-Комаровского и поражение польских патриотов, вступление советских и польских войск в Варшаву.
Страна: СССР
Продолжительность: 4 x ~ 01:30:00
Перевод: не требуется
Файл
Кодек: x264
Качество: DVDRip-AVC
Видео: MPEG-4 AVC, 2500 Кбит/с, 702x394@1024x394
Звук: AC3, 2 ch, 192 Кбит/с

4 из 4> 01:26:07 + 01:40:32 + 01:40:49 + 01:44:43
Фильм Первый
1943. Грандиозные съемки воссоздают важнейшие события тех лет, создав панораму борьбы народов Восточной Европы против фашизма.
На экране - отважные герои, совершавшие бессмертные подвиги во имя счастья человечества. На экране - солдаты свободы.
Фильм второй
Начинался 1944 год - год полного изгнания врага с советской земли, освобождения угнетенных европейских народов. В фильме рассказано о важнейших событиях того времени, в частности - об операции `Багратион`, Варшавском восстании, начале освобождения Польши...
Фильм третий
Фильм отражает завершающие события Второй мировой войны, а главное - разработку и осуществление Ясско-Кишиневской операции, в ходе которой была разгромлена миллионная группировка немецких армий - `Южная Украина`.
На экране - отважные герои, совершавшие бессмертные подвиги во имя счастья человечества. На экране - солдаты свободы
Фильм Четвертый
1945 год. Грандиозные съемки воссоздают важнейшие события: крах фашистского режима в Венгрии и Румынии, освобождение Праги, вступление Советской Армии в Берлин

Общее
Уникальный идентификатор : 186749798578967059062335835583928009597 (0x8C7EB3F28270825698A09A007B0F037D)
Полное имя : I:МОИ РИПЫСолдаты свободы_1977-DVDRip-AVCСолдаты свободы-1.mkv
Формат : Matroska
Версия формата : Version 2
Размер файла : 1,62 Гбайт
Продолжительность : 1 ч. 26 м.
Общий поток : 2693 Кбит/сек
Дата кодирования : UTC 2015-02-19 09:53:10
Программа кодирования : mkvmerge v5.8.0 ('No Sleep / Pillow') built on Sep 2 2012 15:37:04
Библиотека кодирования : libebml v1.2.3 + libmatroska v1.3.0
Видео
Идентификатор : 1
Формат : AVC
Формат/Информация : Advanced Video Codec
Профиль формата : High@L4.1
Параметр CABAC формата : Да
Параметр ReFrames формата : 15 кадров
Идентификатор кодека : V_MPEG4/ISO/AVC
Продолжительность : 1 ч. 26 м.
Битрейт : 2500 Кбит/сек
Ширина : 702 пикселя
Высота : 394 пикселя
Соотношение сторон : 2,599
Соотношение сторон в оригинале : 2,534
Режим частоты кадров : Постоянный
Частота кадров : 25,000 кадров/сек
Цветовое пространство : YUV
Субдискретизация насыщенности : 4:2:0
Битовая глубина : 8 бит
Тип развёртки : Прогрессивная
Бит/(Пиксели*Кадры) : 0.362
Размер потока : 1,47 Гбайт (91%)
Библиотека кодирования : x264 core 142 r2431 ac76440
Настройки программы : cabac=1 / ref=15 / deblock=1:-2:-2 / analyse=0x3:0x133 / me=umh / subme=10 / psy=1 / psy_rd=0.95:0.00 / mixed_ref=1 / me_range=24 / chroma_me=1 / trellis=2 / 8x8dct=1 / cqm=0 / deadzone=21,11 / fast_pskip=0 / chroma_qp_offset=-2 / threads=12 / lookahead_threads=2 / sliced_threads=0 / nr=0 / decimate=0 / interlaced=0 / bluray_compat=0 / constrained_intra=0 / bframes=9 / b_pyramid=2 / b_adapt=2 / b_bias=0 / direct=3 / weightb=1 / open_gop=0 / weightp=2 / keyint=250 / keyint_min=25 / scenecut=40 / intra_refresh=0 / rc=2pass / mbtree=0 / bitrate=2500 / ratetol=1.0 / qcomp=0.60 / qpmin=0 / qpmax=39 / qpstep=4 / cplxblur=20.0 / qblur=0.5 / ip_ratio=1.40 / pb_ratio=1.30 / aq=1:0.90
Язык : English
Default : Да
Forced : Нет
Основные цвета : BT.601 NTSC
Характеристики трансфера : BT.601
Коэффициенты матрицы : BT.601
colour_range : Limited
Аудио
Идентификатор : 2
Формат : AC-3
Формат/Информация : Audio Coding 3
Расширение режима : CM (complete main)
Параметр Endianness формата : Big
Идентификатор кодека : A_AC3
Продолжительность : 1 ч. 26 м.
Вид битрейта : Постоянный
Битрейт : 192 Кбит/сек
Каналы : 2 канала
Расположение каналов : Front: L R
Частота : 48,0 КГц
Битовая глубина : 16 бит
Метод сжатия : С потерями
Размер потока : 118 Мбайт (7%)
Язык : Russian
Default : Да
Forced : Нет

Релиз от:
Автор релиза:



   Похожие торренты   Торрент   Размер 
В этой теме нет новых непрочитанных сообщений. Солдаты свободы (1977) DVDRip

288 | 16

3.06 ГБ

В этой теме нет новых непрочитанных сообщений. Солдаты свободы. Фильмы 3-4 (1977) DVDRip

0 | 20

2.88 ГБ

В этой теме нет новых непрочитанных сообщений. Солдаты свободы [Фильм 01-04 из 04] (1977) DVDRip от Files-x

99 | 25

5.7 ГБ

В этой теме нет новых непрочитанных сообщений. Солдаты свободы. Фильм второй (1977) DVDRip от Русфильм

7 | 3

1.44 ГБ

В этой теме нет новых непрочитанных сообщений. Солдаты свободы. Фильм первый (1977) DVDRip от Русфильм

8 | 2

1.44 ГБ

В этой теме нет новых непрочитанных сообщений. Солдаты свободы (4 фильма из 4) (1977) 4 x DVD-5

115 | 17

16.17 ГБ

В этой теме нет новых непрочитанных сообщений. Солдаты королевы / Soldaat van Oranje (1977) DVDRip

2 | 4

1.36 ГБ




Вы не можете начинать темы
Вы не можете отвечать на сообщения
Вы не можете редактировать свои сообщения
Вы не можете удалять свои сообщения
Вы не можете добавлять вложения

Перейти:  
Для Мосгорсуда, Роскомнадзора и рекламодателей: mosgorsud-torrent[собачка]yandex.ru
 Вход
ppkBB3cker v.2 © 2008-2014 @ PPK
[ Time : 0.023s | 14 Queries | GZIP : Off ]

Торрент трекер RUTOR.IN, Не можете зайти на rutor.org? Какой новый адрес рутор? Какое зеркало рутор? Не работает rutor.org и зеркала? Тогда наш торрент специально для вас. Rutor.in неофициальное зеркало rutor. В случае если у Вас заблокирован rutor или вдруг Вы не можете на него зайти, то Вы без труда сможете скачать бесплатно и без рекламы последние новинки кино, игр, сериалов и прочего у нас, на Rutor.in. Не нужно использовать прокси, чтобы зайти на рутор, достаточно воспользоваться нашим ресурсом. Все новые фильмы, игры, сериалы, книги и музыка за 2013 и 2014 годы через торрент бесплатно. Скачивайте фильмы в хорошем качестве, игры для пк, xbox, playstation без регистрации. У нас вы найдете новые Зарубежные сериалы и Русские сериалы 2013, 2014, 2015 годов. Оставайтесь с нами, качайте любимые фильмы, игры, сериалы, книги и музыку.