img image001 image001 image001 image001 image001 image001 image001 image001 image001 image001 image001 image001 image001 image001 image001

Planets Sun Sun Sun
Статистика раздачи
Автор: Nickolas3434 | Размер: 1.41 ГБ | Добавлен: 13 май 2016
Раздают: 21    Качают: 8
Скачать торрент
Скачать торрент
Описание торрента

СообщениеДобавлено: 13 май 2016 


Информация о фильме
Название: Истребители
Год выхода: 1939
Жанр: Приключения
Режиссер: Эдуард Пенцлин
В ролях: Марк Бернес, Евгения Голынчик, Борис Андреев, Фёдор Селезнев, Владимир Уральский, Алексей Загорский, Елена Музиль, Степан Жаворонок, Евгений Агеев, Владимир Дашенко
О фильме:
Летчики-истребители Сергей и Николай вместе испытывают новые самолеты и во всем стараются превзойти друг друга. Их соперничество началось еще в школьные годы, когда оба были увлечены симпатичной одноклассницей Варей. Трагическая случайность привела Сергея к полной слепоте. Варе, давно любящей его, предстоит нелегкое решение: стать женой инвалида…
Страна: СССР, Киевская киностудия
Продолжительность: 01:31:46
Перевод: не требуется
Файл
Кодек: x264
Качество: SATRip-AVC
Видео: MPEG-4 AVC, 2000 Кбит/с, 668x552@736x552
Звук: AC3, 2 ch, 256 Кбит/с

Общее
Уникальный идентификатор : 251653101176464077604465015958172235818 (0xBD529FD321C09AE994F409204FCE782A)
Полное имя : D:Истребители_1939-SATRip-AVC.mkv
Формат : Matroska
Версия формата : Version 2
Размер файла : 1,41 Гбайт
Продолжительность : 1 ч. 32 м.
Общий поток : 2194 Кбит/сек
Дата кодирования : UTC 2016-05-09 20:26:25
Программа кодирования : mkvmerge v5.8.0 ('No Sleep / Pillow') built on Sep 2 2012 15:37:04
Библиотека кодирования : libebml v1.2.3 + libmatroska v1.3.0
Видео
Идентификатор : 1
Формат : AVC
Формат/Информация : Advanced Video Codec
Профиль формата : High@L4.1
Параметр CABAC формата : Да
Параметр ReFrames формата : 15 кадров
Идентификатор кодека : V_MPEG4/ISO/AVC
Продолжительность : 1 ч. 32 м.
Битрейт : 2000 Кбит/сек
Ширина : 668 пикселей
Высота : 552 пикселя
Соотношение сторон : 4:3
Режим частоты кадров : Постоянный
Частота кадров : 25,000 кадров/сек
Цветовое пространство : YUV
Субдискретизация насыщенности : 4:2:0
Битовая глубина : 8 бит
Тип развёртки : Прогрессивная
Бит/(Пиксели*Кадры) : 0.217
Размер потока : 1,26 Гбайт (89%)
Библиотека кодирования : x264 core 148 r2638 7599210
Настройки программы : cabac=1 / ref=15 / deblock=1:-2:-2 / analyse=0x3:0x133 / me=umh / subme=10 / psy=1 / psy_rd=1.05:0.10 / mixed_ref=1 / me_range=32 / chroma_me=1 / trellis=2 / 8x8dct=1 / cqm=0 / deadzone=21,11 / fast_pskip=0 / chroma_qp_offset=-3 / threads=12 / lookahead_threads=2 / sliced_threads=0 / nr=0 / decimate=0 / interlaced=0 / bluray_compat=0 / constrained_intra=0 / bframes=8 / b_pyramid=2 / b_adapt=2 / b_bias=0 / direct=3 / weightb=1 / open_gop=0 / weightp=2 / keyint=250 / keyint_min=25 / scenecut=40 / intra_refresh=0 / rc=2pass / mbtree=0 / bitrate=2000 / ratetol=1.0 / qcomp=0.63 / qpmin=0 / qpmax=39 / qpstep=4 / cplxblur=20.0 / qblur=0.5 / ip_ratio=1.40 / pb_ratio=1.30 / aq=1:1.00
Язык : English
Default : Да
Forced : Нет
Цветовой диапазон : Limited
Основные цвета : BT.601 PAL
Характеристики трансфера : BT.470 System B, BT.470 System G
Коэффициенты матрицы : BT.601
Аудио
Идентификатор : 2
Формат : AC-3
Формат/Информация : Audio Coding 3
Расширение режима : CM (complete main)
Параметр Endianness формата : Big
Идентификатор кодека : A_AC3
Продолжительность : 1 ч. 32 м.
Вид битрейта : Постоянный
Битрейт : 192 Кбит/сек
Каналы : 2 канала
Расположение каналов : Front: L R
Частота : 48,0 КГц
Метод сжатия : С потерями
Задержка видео : 12 мс.
Размер потока : 127 Мбайт (9%)
Язык : Russian
Default : Да
Forced : Нет

Релиз от:
Автор релиза:



   Похожие торренты   Торрент   Размер 
В этой теме нет новых непрочитанных сообщений. Истребители (1939) DVDRip-AVC от New-Team

155 | 38

1.46 ГБ

В этой теме нет новых непрочитанных сообщений. Истребители (1939) DVDRip от New-Team

32 | 22

1.45 ГБ

В этой теме нет новых непрочитанных сообщений. Истребители (1939) DVDRip от Киномагия

12 | 4

1.37 ГБ

В этой теме нет новых непрочитанных сообщений. Истребители (1939) DVDRip от New-Team

7 | 12

744.54 МБ

В этой теме нет новых непрочитанных сообщений. Танкисты / Истребители (1939) DVD5 от Русфильм

14 | 14

4.35 ГБ

В этой теме нет новых непрочитанных сообщений. Истребители / Истребители: Последний бой [S01-02] (2013-2015) HDTVRip | GeneralFilm, Files-x

728 | 620

12.6 ГБ

В этой теме нет новых непрочитанных сообщений. Истребители - 2. Последний бой [02х01-03 из 12] (2015) WEB-DLRip-AVC от ExKinoRay

53 | 16

3.39 ГБ




Вы не можете начинать темы
Вы не можете отвечать на сообщения
Вы не можете редактировать свои сообщения
Вы не можете удалять свои сообщения
Вы не можете добавлять вложения

Перейти:  
Для Мосгорсуда, Роскомнадзора и рекламодателей: mosgorsud-torrent[собачка]yandex.ru
 Вход
ppkBB3cker v.2 © 2008-2014 @ PPK
[ Time : 1.149s | 16 Queries | GZIP : Off ]

Торрент трекер RUTOR.IN, Не можете зайти на rutor.org? Какой новый адрес рутор? Какое зеркало рутор? Не работает rutor.org и зеркала? Тогда наш торрент специально для вас. Rutor.in неофициальное зеркало rutor. В случае если у Вас заблокирован rutor или вдруг Вы не можете на него зайти, то Вы без труда сможете скачать бесплатно и без рекламы последние новинки кино, игр, сериалов и прочего у нас, на Rutor.in. Не нужно использовать прокси, чтобы зайти на рутор, достаточно воспользоваться нашим ресурсом. Все новые фильмы, игры, сериалы, книги и музыка за 2013 и 2014 годы через торрент бесплатно. Скачивайте фильмы в хорошем качестве, игры для пк, xbox, playstation без регистрации. У нас вы найдете новые Зарубежные сериалы и Русские сериалы 2013, 2014, 2015 годов. Оставайтесь с нами, качайте любимые фильмы, игры, сериалы, книги и музыку.