img image001 image001 image001 image001 image001 image001 image001 image001 image001 image001 image001 image001 image001 image001 image001

Planets Sun Sun Sun
Статистика раздачи
Автор: Nickolas3434 | Размер: 1.29 ГБ | Добавлен: 13 май 2016
Раздают: 37    Качают: 6
Скачать торрент
Скачать торрент
Описание торрента

СообщениеДобавлено: 13 май 2016 


Информация о фильме
Название: Ребро Адама
Год выхода: 1990
Жанр: Трагикомедия
Режиссер: Вячеслав Криштофович
В ролях: Инна Чурикова, Елена Богданова, Светлана Рябова, Мария Голубкина, Станислав Житарев, Андрей Касьянов, Игорь Кваша, Андрей Толубеев, Ростислав Янковский, Галина Казакова, Владимир Борисов, Александр Филатов, Ерванд Арзуманян, Лидия Ежевская, Леонид Машков, Анна Фроловцева, Светлана Швайко
О фильме:
В скромной московской квартире живут четыре женщины: парализованная бабка, ее дочь и две внучки. Одну из внучек обманул женатый любовник, улетевший в Адлер с лучшей подругой, а вторая, пятнадцатилетняя Настя, ждет ребенка от юного балбеса Миши. На день рождения бабки, выжившей в свое время из дома, одного за другим двух мужей дочери, придут эти самые два мужа и нынешний жених. Празднование этой замечательной даты станет кульминацией картины, которая заставит плакать и смеяться самого придирчивого зрителя.
Страна: СССР, Мосфильм, Госкино, Panmeter, Ритм, Workin' Man Films
Продолжительность: 01:13:55
Перевод: не требуется
Файл
Кодек: x264
Качество: DVDRip-AVC
Видео: MPEG-4, 1850 Кбит/с, 702x574@748x574
Звук: AC3, 6 ch, 448 Кбит/с

raw [info]: 702x574p 16:15 @ 25/1 fps (cfr)
x264 [info]: using SAR=16/15
x264 [info]: using cpu capabilities: MMX2 SSE2Fast SSSE3 SSE4.2 AVX
x264 [info]: profile High, level 4.1
x264 [info]: frame I:47 Avg QP:14.01 size: 77413
x264 [info]: frame P:502 Avg QP:18.17 size: 24777
x264 [info]: frame B:1979 Avg QP:20.02 size: 3668
===============================================================================
Общее
Уникальный идентификатор : 234453977976456846898708006052034142668 (0xB0623194C96BA26F815BE5A337DA61CC)
Полное имя : D:Ребро Адама_1990-DVDRip-AVC.mkv
Формат : Matroska
Версия формата : Version 2
Размер файла : 1,29 Гбайт
Продолжительность : 1 ч. 13 м.
Общий поток : 2492 Кбит/сек
Дата кодирования : UTC 2016-05-06 12:04:52
Программа кодирования : mkvmerge v5.8.0 ('No Sleep / Pillow') built on Sep 2 2012 15:37:04
Библиотека кодирования : libebml v1.2.3 + libmatroska v1.3.0
Видео
Идентификатор : 1
Формат : AVC
Формат/Информация : Advanced Video Codec
Профиль формата : High@L4.1
Параметр CABAC формата : Да
Параметр ReFrames формата : 14 кадров
Идентификатор кодека : V_MPEG4/ISO/AVC
Продолжительность : 1 ч. 13 м.
Битрейт : 1850 Кбит/сек
Ширина : 702 пикселя
Высота : 574 пикселя
Соотношение сторон : 4:3
Соотношение сторон в оригинале : 4:3
Режим частоты кадров : Постоянный
Частота кадров : 25,000 кадров/сек
Цветовое пространство : YUV
Субдискретизация насыщенности : 4:2:0
Битовая глубина : 8 бит
Тип развёртки : Прогрессивная
Бит/(Пиксели*Кадры) : 0.184
Размер потока : 953 Мбайт (72%)
Библиотека кодирования : x264 core 148 r2638 7599210
Настройки программы : cabac=1 / ref=14 / deblock=1:-2:-2 / analyse=0x3:0x133 / me=umh / subme=10 / psy=1 / psy_rd=1.05:0.13 / mixed_ref=1 / me_range=32 / chroma_me=1 / trellis=2 / 8x8dct=1 / cqm=0 / deadzone=21,11 / fast_pskip=0 / chroma_qp_offset=-3 / threads=12 / lookahead_threads=2 / sliced_threads=0 / nr=0 / decimate=0 / interlaced=0 / bluray_compat=0 / constrained_intra=0 / bframes=9 / b_pyramid=2 / b_adapt=2 / b_bias=0 / direct=3 / weightb=1 / open_gop=0 / weightp=2 / keyint=250 / keyint_min=25 / scenecut=40 / intra_refresh=0 / rc=2pass / mbtree=0 / bitrate=1850 / ratetol=1.0 / qcomp=0.63 / qpmin=0 / qpmax=39 / qpstep=4 / cplxblur=20.0 / qblur=0.5 / ip_ratio=1.40 / pb_ratio=1.30 / aq=1:1.00
Язык : English
Default : Да
Forced : Нет
Цветовой диапазон : Limited
Основные цвета : BT.601 PAL
Характеристики трансфера : BT.470 System B, BT.470 System G
Коэффициенты матрицы : BT.601
Аудио #1
Идентификатор : 2
Формат : AC-3
Формат/Информация : Audio Coding 3
Расширение режима : CM (complete main)
Параметр Endianness формата : Big
Идентификатор кодека : A_AC3
Продолжительность : 1 ч. 13 м.
Вид битрейта : Постоянный
Битрейт : 448 Кбит/сек
Каналы : 6 каналов
Расположение каналов : Front: L C R, Side: L R, LFE
Частота : 48,0 КГц
Метод сжатия : С потерями
Размер потока : 237 Мбайт (18%)
Язык : Russian
Default : Да
Forced : Нет
Аудио #2
Идентификатор : 3
Формат : AC-3
Формат/Информация : Audio Coding 3
Расширение режима : CM (complete main)
Параметр Endianness формата : Big
Идентификатор кодека : A_AC3
Продолжительность : 1 ч. 13 м.
Вид битрейта : Постоянный
Битрейт : 192 Кбит/сек
Каналы : 2 канала
Расположение каналов : Front: L R
Частота : 48,0 КГц
Метод сжатия : С потерями
Размер потока : 102 Мбайт (8%)
Язык : Russian
Default : Нет
Forced : Нет
Меню
00:00:00.000 : ru:Chapter 1
00:10:00.960 : ru:Chapter 2
00:23:46.640 : ru:Chapter 3
00:38:25.600 : ru:Chapter 4
00:51:40.720 : ru:Chapter 5
01:07:54.680 : ru:Chapter 6

Релиз от:
Автор релиза:



   Похожие торренты   Торрент   Размер 
В этой теме нет новых непрочитанных сообщений. Про Адама / About Adam (2000) DVDRip

210 | 68

1.36 ГБ

В этой теме нет новых непрочитанных сообщений. Про Адама / About Adam (2000) DVDRip от MediaClub | КПК

3 | 0

420.32 МБ

В этой теме нет новых непрочитанных сообщений. Бес в ребро или Великолепная четверка [01-12 из 12] (2006) DVDRip от Php111

23 | 14

5.27 ГБ

В этой теме нет новых непрочитанных сообщений. Витрина DC: Супермен / Шазам! - Возвращение Черного Адама / DC Showcase: Superman / Shazam!: The Return of Black Adam (2010) DVDRip

79 | 11

304.62 МБ

В этой теме нет новых непрочитанных сообщений. Резвый (1990) DVDRip от ExKinoRay

7 | 4

150.17 МБ

В этой теме нет новых непрочитанных сообщений. Палач (1990) DVDRip-AVC от ExKinoRay

123 | 20

2.53 ГБ

В этой теме нет новых непрочитанных сообщений. Каталажка (1990) DVDRip от ExKinoRay

16 | 6

1.08 ГБ




Вы не можете начинать темы
Вы не можете отвечать на сообщения
Вы не можете редактировать свои сообщения
Вы не можете удалять свои сообщения
Вы не можете добавлять вложения

Перейти:  
Для Мосгорсуда, Роскомнадзора и рекламодателей: mosgorsud-torrent[собачка]yandex.ru
 Вход
ppkBB3cker v.2 © 2008-2014 @ PPK
[ Time : 0.063s | 15 Queries | GZIP : Off ]

Торрент трекер RUTOR.IN, Не можете зайти на rutor.org? Какой новый адрес рутор? Какое зеркало рутор? Не работает rutor.org и зеркала? Тогда наш торрент специально для вас. Rutor.in неофициальное зеркало rutor. В случае если у Вас заблокирован rutor или вдруг Вы не можете на него зайти, то Вы без труда сможете скачать бесплатно и без рекламы последние новинки кино, игр, сериалов и прочего у нас, на Rutor.in. Не нужно использовать прокси, чтобы зайти на рутор, достаточно воспользоваться нашим ресурсом. Все новые фильмы, игры, сериалы, книги и музыка за 2013 и 2014 годы через торрент бесплатно. Скачивайте фильмы в хорошем качестве, игры для пк, xbox, playstation без регистрации. У нас вы найдете новые Зарубежные сериалы и Русские сериалы 2013, 2014, 2015 годов. Оставайтесь с нами, качайте любимые фильмы, игры, сериалы, книги и музыку.