img image001 image001 image001 image001 image001 image001 image001 image001 image001 image001 image001 image001 image001 image001 image001

Planets Sun Sun Sun
Статистика раздачи
Автор: Nickolas3434 | Размер: 746.47 МБ | Добавлен: 13 май 2016
Раздают: 82    Качают: 5
Скачать торрент
Скачать торрент
Описание торрента

СообщениеДобавлено: 13 май 2016 

Жизнь на двоих


Страна: Украина
Жанр: драма, детектив
Год выпуска: 2009
Продолжительность: 01:20:07
Перевод: Не требуется (русский)
Cубтитры: нет
Оригинальная аудиодорожка: русский
Режиссер: Ольга Орехова
В ролях: Оксана Васильева, Константин Костышин, Анна Слынько, Павел Трубинер, Олег Харитонов, Виктор Щур, Олег Драч, Наталья Морозова, Владимир Кузнецов, Миша Хоменко, Нина Антонова, Егор Баринов
Описание:
В лесополосе найдено тело молодой женщины. Его невозможно опознать: лицо и одна рука были обезображены кислотой. Рядом лежат два паспорта, но это не проясняет ситуацию...
Три бывших одноклассника - следователь Михаил, бизнесмен Максим и банкир Вячеслав - близкие друзья. Вячеслав приглашает Михаила и Максима на свою свадьбу, где и представляет им молодую жену Юлю. Неожиданно Михаил узнает в ней девушку с фотографии в паспорте, найденном возле убитой. Юля признается, что у нее есть беспутная сестра-близнец Ульяна, которой она стыдится, и, скорее всего, погибла именно она. Но, сняв отпечатки пальцев с уцелевшей руки убитой, следствие обнаруживает, что жертва преступления - вовсе не Ульяна.
Расследование не прекращается: ведь у многих героев этой истории совесть не чиста...

Релиз:
Автор рипа: Stalker oK
Сэмпл
Качество видео: HDTVRip-AVC [HDTV / 1080i]
Формат видео: MKV
Видео кодек: AVC
Аудио кодек: AAC
Видео: 1237 Кбит/сек, 848*478 (16:9), в 25,000 кадров/сек, AVC
Аудио: русский, 64,0 Кбит/сек, 48,0 КГц / 24,0 КГц, 2 канала, AAC (HE-AAC / LC)

Общее
Уникальный идентификатор : 188943827352198925676752432611101287821 (0x8E2541EAE5496993A1B314B0D84CA58D)
Полное имя : M:1WEB-DLZhizn na dvoihZhizn.na.dvoih.2009.HDTVRip-AVC.745Mb.stalkerok.new-team.mkv
Формат : Matroska
Версия формата : Version 4 / Version 2
Размер файла : 746 Мбайт
Продолжительность : 1 ч. 20 м.
Общий поток : 1302 Кбит/сек
Название фильма : Жизнь на двоих (2009) (New-Team) (Rip by Stalker oK)
Дата кодирования : UTC 2016-05-13 14:12:54
Программа кодирования : mkvmerge v8.6.1 ('Flying') 64bit
Библиотека кодирования : libebml v1.3.3 + libmatroska v1.4.4
Видео
Идентификатор : 1
Формат : AVC
Формат/Информация : Advanced Video Codec
Профиль формата : High@L4.1
Параметр CABAC формата : Да
Параметр ReFrames формата : 16 кадров
Идентификатор кодека : V_MPEG4/ISO/AVC
Продолжительность : 1 ч. 20 м.
Битрейт : 1237 Кбит/сек
Ширина : 848 пикселей
Высота : 478 пикселей
Соотношение сторон : 16:9
Режим частоты кадров : Постоянный
Частота кадров : 25,000 кадров/сек
Цветовое пространство : YUV
Субдискретизация насыщенности : 4:2:0
Битовая глубина : 8 бит
Тип развёртки : Прогрессивная
Бит/(Пиксели*Кадры) : 0.122
Размер потока : 709 Мбайт (95%)
Заголовок : Жизнь на двоих (2009) (New-Team) (Rip by Stalker oK)
Библиотека кодирования : x264 core 148 r2665kMod a01e339
Настройки программы : cabac=1 / ref=16 / deblock=1:-3:-2 / analyse=0x3:0x133 / me=umh / subme=10 / psy=1 / fade_compensate=0.00 / psy_rd=1.00:0.02 / mixed_ref=1 / me_range=32 / chroma_me=1 / trellis=2 / 8x8dct=1 / cqm=0 / deadzone=21,11 / fast_pskip=0 / chroma_qp_offset=-3 / threads=12 / lookahead_threads=3 / sliced_threads=0 / nr=0 / decimate=0 / interlaced=0 / bluray_compat=0 / constrained_intra=0 / fgo=0 / bframes=16 / b_pyramid=2 / b_adapt=2 / b_bias=0 / direct=3 / weightb=1 / open_gop=0 / weightp=2 / keyint=250 / keyint_min=25 / scenecut=40 / intra_refresh=0 / rc_lookahead=60 / rc=2pass / mbtree=0 / bitrate=1237 / ratetol=1.0 / qcomp=0.65 / qpmin=0 / qpmax=69 / qpstep=4 / cplxblur=20.0 / qblur=0.5 / vbv_maxrate=50000 / vbv_bufsize=62500 / nal_hrd=none / filler=0 / ip_ratio=1.40 / pb_ratio=1.30 / aq=1:0.90
Default : Да
Forced : Нет
Аудио
Идентификатор : 2
Формат : AAC
Формат/Информация : Advanced Audio Codec
Профиль формата : HE-AACv2 / HE-AAC / LC
Идентификатор кодека : A_AAC
Продолжительность : 1 ч. 20 м.
Битрейт : 64,0 Кбит/сек
Каналы : 2 канала / 17 каналов / 17 каналов
Расположение каналов : Front: L R / Front: L C R, Side: 5, Back: 9 / Front: L C R, Side: 5, Back: 9
Частота : 48,0 КГц / 48,0 КГц / 24,0 КГц
Частота кадров : 23,438 кадра/сек (1024 spf)
Метод сжатия : С потерями
Задержка видео : 31 мс.
Размер потока : 36,7 Мбайт (5%)
Язык : Russian
Default : Да
Forced : Нет




   Похожие торренты   Торрент   Размер 
В этой теме нет новых непрочитанных сообщений. Жизнь на двоих (2009) HDTVRip-AVC от New-Team

34 | 2

1.46 ГБ

В этой теме нет новых непрочитанных сообщений. Жизнь на двоих (2009) HDTVRip-AVC от Files-x

36 | 7

1.37 ГБ

В этой теме нет новых непрочитанных сообщений. Жизнь на двоих (2009) HDTV 1080i от Files-x

114 | 9

4.43 ГБ

В этой теме нет новых непрочитанных сообщений. Деньги на двоих / Two for the Money (2005) HDTVRip 720p от Element team

40 | 3

2.18 ГБ

В этой теме нет новых непрочитанных сообщений. Жизнь морских обитателей / Морская жизнь / Fish Life (2009-2010) HDTVRip от R.G.RealMT | D

3 | 1

4.79 ГБ

В этой теме нет новых непрочитанных сообщений. Жизнь морских обитателей / Морская жизнь / Fish Life [01-12] (2009-2010) HDTVRip 720p от ExKinoRay

25 | 18

8.58 ГБ

В этой теме нет новых непрочитанных сообщений. Жизнь морских обитателей / Морская жизнь / Fish Life (2009-2010) HDTVRip 1080 от Freeisland

12 | 3

12.49 ГБ




Вы не можете начинать темы
Вы не можете отвечать на сообщения
Вы не можете редактировать свои сообщения
Вы не можете удалять свои сообщения
Вы не можете добавлять вложения

Перейти:  
Для Мосгорсуда, Роскомнадзора и рекламодателей: mosgorsud-torrent[собачка]yandex.ru
 Вход
ppkBB3cker v.2 © 2008-2014 @ PPK
[ Time : 0.039s | 15 Queries | GZIP : Off ]

Торрент трекер RUTOR.IN, Не можете зайти на rutor.org? Какой новый адрес рутор? Какое зеркало рутор? Не работает rutor.org и зеркала? Тогда наш торрент специально для вас. Rutor.in неофициальное зеркало rutor. В случае если у Вас заблокирован rutor или вдруг Вы не можете на него зайти, то Вы без труда сможете скачать бесплатно и без рекламы последние новинки кино, игр, сериалов и прочего у нас, на Rutor.in. Не нужно использовать прокси, чтобы зайти на рутор, достаточно воспользоваться нашим ресурсом. Все новые фильмы, игры, сериалы, книги и музыка за 2013 и 2014 годы через торрент бесплатно. Скачивайте фильмы в хорошем качестве, игры для пк, xbox, playstation без регистрации. У нас вы найдете новые Зарубежные сериалы и Русские сериалы 2013, 2014, 2015 годов. Оставайтесь с нами, качайте любимые фильмы, игры, сериалы, книги и музыку.